↑↓torrent.by
Поиск
Логин: Регистрация
Пароль: Восстановить пароль

Не время умирать / No Time to Die (2021) WEB-DLRip-HEVC 1080p | D, P | TS

Скачать ne-vremya-umirat-no-time-to-die-2021-web-dlrip-hevc-1080p-d-p-ts.torrent
U Магнитная ссылка Размер: 2.94 GB Раздают: 322 Качают: 174 Добавлен: 2021-11-11 17:32:04
Не время умирать / No Time to Die (2021) WEB-DLRip-HEVC 1080p | D, P | TS

Год выхода: 2021
Жанр:  Боевик, триллер, приключения
Режиссер: Кэри Дзёдзи Фукунага
В ролях: Дэниэл Крэйг, Рами Малек, Леа Сейду, Лашана Линч, Бен Уишоу, Наоми Харрис, Билли Магнуссен, Ана де Армас, Кристоф Вальц, Рэйф Файнс

О фильме:
Джеймс Бонд оставил оперативную службу и наслаждается спокойной жизнью на Ямайке. Все меняется, когда на острове появляется его старый друг Феликс Лейтер из ЦРУ с просьбой о помощи. Миссия по спасению похищенного ученого оказывается опаснее, чем предполагалось изначально. Бонд попадает в ловушку к таинственному злодею, вооруженному опасным технологическим оружием.

Страна: Великобритания, США
Студия: Metro-Goldwyn-Mayer (MGM), Universal Pictures, Eon Productions
Продолжительность: 02:43:23
Перевод: Дублированный (TS), профессиональный многоголосый (Jaskier)
Субтитры: Русские (Forced, Full (FOCS)), английские

Файл
Формат: Matroska
Качество: WEB-DLRip-HEVC 1080p
Видео: 1920x800 at 23.976 fps, x265(10 bit), ~2000 kbps
Аудио 1: AC3, 2 ch, ~192 kbps - | Русский |  | DUB - TS | Tnx.KinoPub
Аудио 2: AC3, 6 ch, ~384 kbps - | Русский |  | MVO - Jaskier | Tnx.KinoPub
Формат субтитров: softsub (SRT)

***Релиз от: -=DoMiNo=-


[+] M/I
General
Unique ID                   : 53780412817353243560452987969369521101 (0x2875BB12364CF4F640D2FDCB5F6BBBCD)
Complete name               : E:No.time.to.die.2021.DUB.MVO.WEB-DLRip-HEVC.1080p.mkv
Format                      : Matroska
Format version              : Version 4
File size                   : 2.94 GiB
Duration                    : 2 h 43 min
Overall bit rate            : 2 579 kb/s
Encoded date                : UTC 2021-11-11 10:20:39
Writing application         : mkvmerge v62.0.0 ('Apollo') 64-bit
Writing library             : libebml v1.4.2 + libmatroska v1.6.4
Cover                       : Yes
Attachments                 : cover.jpg / cover 2.jpg

Video
ID                          : 1
Format                      : HEVC
Format/Info                 : High Efficiency Video Coding
Format profile              : Main 10@L4@Main
Codec ID                    : V_MPEGH/ISO/HEVC
Duration                    : 2 h 43 min
Bit rate                    : 2 000 kb/s
Width                       : 1 920 pixels
Height                      : 800 pixels
Display aspect ratio        : 2.40:1
Frame rate mode             : Constant
Frame rate                  : 23.976 (24000/1001) FPS
Color space                 : YUV
Chroma subsampling          : 4:2:0
Bit depth                   : 10 bits
Bits/(Pixel*Frame)          : 0.054
Stream size                 : 2.28 GiB (78%)
Writing library             : x265 3.3+4-rarbg-30eb4de83092:[Linux][GCC 8.3.1][64 bit] 10bit
Encoding settings           : cpuid=1111039 / frame-threads=4 / wpp / no-pmode / no-pme / no-psnr / no-ssim / log-level=2 / input-csp=1 / input-res=1920x800 / interlace=0 / total-frames=0 / level-idc=0 / high-tier=1 / uhd-bd=0 / ref=4 / no-allow-non-conformance / no-repeat-headers / annexb / no-aud / no-hrd / info / hash=0 / no-temporal-layers / open-gop / min-keyint=23 / keyint=250 / gop-lookahead=0 / bframes=4 / b-adapt=2 / b-pyramid / bframe-bias=0 / rc-lookahead=25 / lookahead-slices=4 / scenecut=40 / hist-scenecut=0 / radl=0 / no-splice / no-intra-refresh / ctu=64 / min-cu-size=8 / rect / no-amp / max-tu-size=32 / tu-inter-depth=1 / tu-intra-depth=1 / limit-tu=0 / rdoq-level=2 / dynamic-rd=0.00 / no-ssim-rd / signhide / no-tskip / nr-intra=0 / nr-inter=0 / no-constrained-intra / strong-intra-smoothing / max-merge=3 / limit-refs=3 / limit-modes / me=3 / subme=3 / merange=57 / temporal-mvp / no-frame-dup / no-hme / weightp / no-weightb / no-analyze-src-pics / deblock=0:0 / no-sao / no-sao-non-deblock / rd=4 / selective-sao=0 / no-early-skip / rskip / no-fast-intra / no-tskip-fast / no-cu-lossless / no-b-intra / no-splitrd-skip / rdpenalty=0 / psy-rd=2.00 / psy-rdoq=1.00 / no-rd-refine / no-lossless / cbqpoffs=0 / crqpoffs=0 / rc=abr / bitrate=2000 / qcomp=0.60 / qpstep=4 / stats-write=0 / stats-read=2 / cplxblur=20.0 / qblur=0.5 / ipratio=1.40 / pbratio=1.30 / aq-mode=3 / aq-strength=1.00 / cutree / zone-count=0 / no-strict-cbr / qg-size=32 / no-rc-grain / qpmax=69 / qpmin=0 / no-const-vbv / sar=1 / overscan=0 / videoformat=5 / range=0 / colorprim=2 / transfer=2 / colormatrix=2 / chromaloc=0 / display-window=0 / cll=0,0 / min-luma=0 / max-luma=1023 / log2-max-poc-lsb=8 / vui-timing-info / vui-hrd-info / slices=1 / no-opt-qp-pps / no-opt-ref-list-length-pps / no-multi-pass-opt-rps / scenecut-bias=0.05 / hist-threshold=0.01 / no-opt-cu-delta-qp / no-aq-motion / no-hdr10 / no-hdr10-opt / no-dhdr10-opt / no-idr-recovery-sei / analysis-reuse-level=0 / analysis-save-reuse-level=0 / analysis-load-reuse-level=0 / scale-factor=0 / refine-intra=0 / refine-inter=0 / refine-mv=1 / refine-ctu-distortion=0 / no-limit-sao / ctu-info=0 / no-lowpass-dct / refine-analysis-type=0 / copy-pic=1 / max-ausize-factor=1.0 / no-dynamic-refine / no-single-sei / no-hevc-aq / no-svt / no-field / qp-adaptation-range=1.00 / no-scenecut-aware-qpconformance-window-offsets / right=0 / bottom=0
Language                    : English
Default                     : Yes
Forced                      : No

Audio #1
ID                          : 2
Format                      : AC-3
Format/Info                 : Audio Coding 3
Commercial name             : Dolby Digital
Codec ID                    : A_AC3
Duration                    : 2 h 43 min
Bit rate mode               : Constant
Bit rate                    : 192 kb/s
Channel(s)                  : 2 channels
Channel layout              : L R
Sampling rate               : 48.0 kHz
Frame rate                  : 31.250 FPS (1536 SPF)
Compression mode            : Lossy
Stream size                 : 224 MiB (7%)
Title                       : DUB
Language                    : Russian
Service kind                : Complete Main
Default                     : Yes
Forced                      : No

Audio #2
ID                          : 3
Format                      : AC-3
Format/Info                 : Audio Coding 3
Commercial name             : Dolby Digital
Codec ID                    : A_AC3
Duration                    : 2 h 43 min
Bit rate mode               : Constant
Bit rate                    : 384 kb/s
Channel(s)                  : 6 channels
Channel layout              : L R C LFE Ls Rs
Sampling rate               : 48.0 kHz
Frame rate                  : 31.250 FPS (1536 SPF)
Compression mode            : Lossy
Stream size                 : 449 MiB (15%)
Title                       : MVO_[Jaskier]
Language                    : Russian
Service kind                : Complete Main
Default                     : No
Forced                      : No

Text #1
ID                          : 4
Format                      : UTF-8
Codec ID                    : S_TEXT/UTF8
Codec ID/Info               : UTF-8 Plain Text
Duration                    : 2 h 15 min
Bit rate                    : 2 b/s
Count of elements           : 55
Stream size                 : 1.98 KiB (0%)
Title                       : Forced
Language                    : Russian
Default                     : Yes
Forced                      : No

Text #2
ID                          : 5
Format                      : UTF-8
Codec ID                    : S_TEXT/UTF8
Codec ID/Info               : UTF-8 Plain Text
Duration                    : 2 h 36 min
Bit rate                    : 68 b/s
Count of elements           : 1721
Stream size                 : 78.9 KiB (0%)
Title                       : FOCS
Language                    : Russian
Default                     : No
Forced                      : No

Text #3
ID                          : 6
Format                      : UTF-8
Codec ID                    : S_TEXT/UTF8
Codec ID/Info               : UTF-8 Plain Text
Duration                    : 2 h 15 min
Bit rate                    : 1 b/s
Count of elements           : 55
Stream size                 : 1.19 KiB (0%)
Title                       : Forced
Language                    : English
Default                     : No
Forced                      : No

Text #4
ID                          : 7
Format                      : UTF-8
Codec ID                    : S_TEXT/UTF8
Codec ID/Info               : UTF-8 Plain Text
Duration                    : 2 h 35 min
Bit rate                    : 42 b/s
Count of elements           : 1671
Stream size                 : 48.4 KiB (0%)
Language                    : English
Default                     : No
Forced                      : No

Text #5
ID                          : 8
Format                      : UTF-8
Codec ID                    : S_TEXT/UTF8
Codec ID/Info               : UTF-8 Plain Text
Duration                    : 2 h 40 min
Bit rate                    : 52 b/s
Count of elements           : 2136
Stream size                 : 61.1 KiB (0%)
Title                       : SDH
Language                    : English
Default                     : No
Forced                      : No



Скриншоты:
[+] Всего файлов в раздаче - 1:

Похожие раздачи по запросу - время:
2022-01-18 U Джон Гришэм - Время прощать (2021) MP3 579.38 MB ↑ 40 ↓ 8
2022-01-16 U Левина Д. - Книга вдохновения. Сезонные рецепты, стиль и идеи домашнего декора на каждое время года (2022) PDF 11.95 MB ↑ 60 ↓ 30
2022-01-15 U Интимная жизнь во время оккупации / L'occupation intime (2011) DVB | P2 1.94 GB ↑ 217 ↓ 132
2022-01-01 U Уральские пельмени. Пир во время зимы [эфир от 31.12] (2021) WEBRip 1080p от DolgOFF 1.75 GB ↑ 349 ↓ 239
2021-12-22 U Не время умирать / No Time to Die (2021) BDRip-AVC от HELLYWOOD | iTunes 1.46 GB ↑ 74 ↓ 31
2021-12-21 U Не время умирать / No Time to Die (2021) Hybrid 1080p | D | IMAX | iTunes 6.67 GB ↑ 57 ↓ 51
2021-12-18 U Не время умирать / No Time to Die (2021) BDRip 1080p от Generalfilm | iTunes 11.41 GB ↑ 44 ↓ 47

Отзывы
Зарегистрируйтесь чтобы добавить комментарий.
Торрент клиент
byTorrent - программа для загрузки торрент-файлов.

Скачать byTorrent


Поддержи torrent.by
российских рублей
(300 российских рублей это 4$)

Обратная связь rss
End ©