↑↓torrent.by
Поиск
Логин: Регистрация
Пароль: Восстановить пароль

Не время умирать / No Time to Die (2021) WEB-DL-HEVC 2160p | 4K | Dolby Vision TV | Jaskier, Pazl Voice

Скачать ne-vremya-umirat-no-time-to-die-2021-web-dl-hevc-2160p-4k-dolby-vision-tv-jaskier-pazl-voice.torrent
U Магнитная ссылка Размер: 29.81 GB Раздают: 496 Качают: 8 Добавлен: 2021-11-12 08:49:55
Не время умирать / No Time to Die (2021) WEB-DL-HEVC 2160p | 4K | Dolby Vision TV | Jaskier, Pazl Voice

Название: Не время умирать
Оригинальное название: No Time to Die
Год выхода: 2021
Жанр: боевик, триллер, приключения
Режиссер: Кэри Дзёдзи Фукунага
В ролях: Дэниел Крейг, Ана де Армас, Рами Малек, Леа Сейду, Лашана Линч, Ральф Файнс, Бен Уишоу, Наоми Харрис, Рори Киннер, Джеффри Райт, Билли Магнуссен, Кристоф Вальц, Дэвид Денчик, Дали Бенссала, Лиза-Дора Соннет, Колин Дефо, Матильда Бурбин, Хью Деннис, Приянга Берфорд, Джо Гросси

О фильме:
Джеймс Бонд оставил оперативную службу и наслаждается спокойной жизнью на Ямайке. Все меняется, когда на острове появляется его старый друг Феликс Лейтер из ЦРУ с просьбой о помощи. Миссия по спасению похищенного ученого оказывается опаснее, чем предполагалось изначально. Бонд попадает в ловушку таинственного злодея, вооруженного опасным биологическим оружием.

Страна: Великобритания, США
Студия: Metro-Goldwyn-Mayer (MGM), Universal Pictures, Eon Productions
Продолжительность: 02:43:23
Перевод: Профессиональный многоголосый, любительский двухголосый

Файл
Формат: MP4
Кодек: H.265
Качество: WebDL 2160p
Видео: HEVC, Dolby Vision Profile 5, 24,5 Mбит/с, 3832x1600, 23.976 кадр/с
Звук:
[В ответ на MadAndron]
Аудио #1 Русский: AC3, 48.0 kHz, 5.1 ch, 448 Kbps [MVO, Jaskier | Tnx.KinoPub]
Аудио #2 Русский: AC3, 48.0 kHz, 5.1 ch, 448 Kbps [DVO, Pazl Voice | Tnx.KinoPub]
Аудио #3 English: EAC3 JOC, 48.0 kHz, 5.1 ch, 768 Kbps [Original]
Субтитры: русские (полные: FOCS), английские (форс., полные, SDH)

Дополнительная информация:
Релиз в MP4 в 5-м профиле Dolby Vision для воспроизведении на устройствах с поддержкой DV. Протестировано на тв-боксах Nvidia Shield 2019, Zidoo Z1000 Pro, Amazon FireTV Stick 4k, TiVo Stream 4K и Ugoos AM6+ и многих других, а также на встроенных плеерах телевизоров LG, Sony, Phillips и Panasonic.
На устройствах без поддержки Dolby Vision проигрываться не будет(или будет, но с искаженными цветами), так как в видеоряде отсутствует HDR слой

Релиз: Dolby Vision Torrents
[+] Mediainfo

Общее
Полное имя                               : Slid-NASFilmsNo.Time.to.Die.2021.2160p.2160p.WEB-DL.DoVi.DDP5.1.by.DVT.mp4
Формат                                   : MPEG-4
Профиль формата                          : Base Media / Version 2
Идентификатор кодека                     : mp42 (isom/mp42/dby1)
Размер файла                             : 29,8 Гбайт
Продолжительность                        : 2 ч. 43 м.
Режим общего битрейта                    : Переменный
Общий поток                              : 26,1 Мбит/сек
Название фильма                          : No Time to Die (2021). Release by Dolby Vision Torrents
Дата кодирования                         : UTC 2021-11-11 09:47:17
Дата пометки                             : UTC 2021-11-11 09:47:17
Программа кодирования                    : GPAC-1.1.0-DEV-rev1027-g1daa0b5f-master

Видео
Идентификатор                            : 1
Формат                                   : HEVC
Формат/Информация                        : High Efficiency Video Coding
Профиль формата                          : Main 10@L5@High
HDR format                               : Dolby Vision, Version 1.0, dvhe.05.06, BL+RPU
Идентификатор кодека                     : dvhe
Идентификатор кодека/Информация          : High Efficiency Video Coding with Dolby Vision
Продолжительность                        : 2 ч. 43 м.
Битрейт                                  : 24,5 Мбит/сек
Ширина                                   : 3 832 пикселя
Высота                                   : 1 600 пикселей
Высота оригинала                         : 1 596 пикселей
Соотношение сторон                       : 2,40:1
Соотношение сторон в оригинале           : 2,40:1
Режим частоты кадров                     : Постоянный
Частота кадров                           : 23,976 (24000/1001) кадра/сек
Цветовое пространство                    : YUV
Субдискретизация насыщенности            : 4:2:0
Битовая глубина                          : 10 бит
Бит/(Пиксели*Кадры)                      : 0.166
Размер потока                            : 27,9 Гбайт (94%)
Заголовок                                : No Time to Die (2021)
Язык                                     : English
Default                                  : Да
Alternate group                          : 1
Дата кодирования                         : UTC 2021-11-09 05:10:32
Дата пометки                             : UTC 2021-11-11 09:49:05
Codec configuration box                  : hvcC+dvcC

Аудио #1
Идентификатор                            : 2
Формат                                   : AC-3
Формат/Информация                        : Audio Coding 3
Коммерческое название                    : Dolby Digital
Идентификатор кодека                     : ac-3
Продолжительность                        : 2 ч. 43 м.
Вид битрейта                             : Постоянный
Битрейт                                  : 448 Кбит/сек
Максимальный битрейт                     : 473 Кбит/сек
Каналы                                   : 6 каналов
Channel layout                           : L R C LFE Ls Rs
Частота                                  : 48,0 КГц
Частота кадров                           : 31,250 кадров/сек (1536 SPF)
Метод сжатия                             : С потерями
Размер потока                            : 524 Мбайт (2%)
Заголовок                                : MVO, Jaskier
Язык                                     : Russian
Service kind                             : Complete Main
Дата кодирования                         : UTC 2021-11-11 09:48:16
Дата пометки                             : UTC 2021-11-11 09:49:05

Аудио #2
Идентификатор                            : 3
Формат                                   : AC-3
Формат/Информация                        : Audio Coding 3
Коммерческое название                    : Dolby Digital
Идентификатор кодека                     : ac-3
Продолжительность                        : 2 ч. 43 м.
Продолжительность оригинала              : 2 ч. 43 м.
Вид битрейта                             : Постоянный
Битрейт                                  : 448 Кбит/сек
Максимальный битрейт                     : 473 Кбит/сек
Каналы                                   : 6 каналов
Channel layout                           : L R C LFE Ls Rs
Частота                                  : 48,0 КГц
Частота кадров                           : 31,250 кадров/сек (1536 SPF)
Метод сжатия                             : С потерями
Размер потока                            : 524 Мбайт (2%)
Размер потока оригинала                  : 524 Мбайт (2%)
Заголовок                                : DVO, Pazl Voice
Язык                                     : Russian
Service kind                             : Complete Main
Default                                  : Нет
Alternate group                          : 1
Дата пометки                             : UTC 2021-11-11 09:49:05

Аудио #3
Идентификатор                            : 4
Формат                                   : E-AC-3 JOC
Формат/Информация                        : Enhanced AC-3 with Joint Object Coding
Коммерческое название                    : Dolby Digital Plus with Dolby Atmos
Идентификатор кодека                     : ec-3
Продолжительность                        : 2 ч. 43 м.
Вид битрейта                             : Постоянный
Битрейт                                  : 768 Кбит/сек
Максимальный битрейт                     : 811 Кбит/сек
Каналы                                   : 6 каналов
Channel layout                           : L R C LFE Ls Rs
Частота                                  : 48,0 КГц
Частота кадров                           : 31,250 кадров/сек (1536 SPF)
Метод сжатия                             : С потерями
Размер потока                            : 898 Мбайт (3%)
Заголовок                                : Original
Язык                                     : English
Service kind                             : Complete Main
Default                                  : Нет
Дата кодирования                         : UTC 2021-11-09 05:05:45
Дата пометки                             : UTC 2021-11-11 09:49:05
Complexity index                         : Not present / 16
Number of dynamic objects                : 15
Bed channel count                        : 1 канал
Bed channel configuration                : LFE

Текст #1
Идентификатор                            : 5
Формат                                   : Timed Text
Идентификатор кодека                     : tx3g
Продолжительность                        : 2 ч. 37 м.
Вид битрейта                             : Переменный
Битрейт                                  : 74 бит/сек
Размер потока                            : 85,3 Кбайт (0%)
Заголовок                                : Full, FOCS
Язык                                     : Russian
Forced                                   : Нет
Дата кодирования                         : UTC 2021-11-11 07:57:03
Дата пометки                             : UTC 2021-11-11 09:49:05

Текст #2
Идентификатор                            : 6
Формат                                   : Timed Text
Идентификатор кодека                     : tx3g
Продолжительность                        : 2 ч. 16 м.
Вид битрейта                             : Переменный
Битрейт                                  : 1 бит/сек
Размер потока                            : 1,40 Кбайт (0%)
Заголовок                                : Forced
Язык                                     : English
Forced                                   : Нет
Дата кодирования                         : UTC 2021-11-09 05:24:38
Дата пометки                             : UTC 2021-11-11 09:49:05

Текст #3
Идентификатор                            : 7
Формат                                   : Timed Text
Идентификатор кодека                     : tx3g
Продолжительность                        : 2 ч. 36 м.
Вид битрейта                             : Переменный
Битрейт                                  : 50 бит/сек
Размер потока                            : 57,8 Кбайт (0%)
Заголовок                                : Full
Язык                                     : English
Forced                                   : Нет
Дата кодирования                         : UTC 2021-11-09 05:24:38
Дата пометки                             : UTC 2021-11-11 09:49:05

Текст #4
Идентификатор                            : 8
Формат                                   : Timed Text
Идентификатор кодека                     : tx3g
Продолжительность                        : 2 ч. 40 м.
Вид битрейта                             : Переменный
Битрейт                                  : 62 бит/сек
Размер потока                            : 73,2 Кбайт (0%)
Заголовок                                : SDH
Язык                                     : English
Forced                                   : Нет
Дата кодирования                         : UTC 2021-11-09 05:24:38
Дата пометки                             : UTC 2021-11-11 09:49:05

Меню
00:00:00.000                             : Chapter 1
00:11:57.125                             : Chapter 2
00:27:09.750                             : Chapter 3
00:43:46.000                             : Chapter 4
00:56:58.099                             : Chapter 5
01:04:09.000                             : Chapter 6
01:13:06.500                             : Chapter 7
01:22:28.832                             : Chapter 8
01:33:49.332                             : Chapter 9
01:51:42.000                             : Chapter 10
02:06:54.000                             : Chapter 11
02:25:23.500                             : Chapter 12
02:35:07.000                             : Chapter 13



Скриншоты:
[+] Всего файлов в раздаче - 1:

Похожие раздачи по запросу - время:
2022-01-18 U Джон Гришэм - Время прощать (2021) MP3 579.38 MB ↑ 40 ↓ 8
2022-01-16 U Левина Д. - Книга вдохновения. Сезонные рецепты, стиль и идеи домашнего декора на каждое время года (2022) PDF 11.95 MB ↑ 60 ↓ 30
2022-01-15 U Интимная жизнь во время оккупации / L'occupation intime (2011) DVB | P2 1.94 GB ↑ 217 ↓ 132
2022-01-01 U Уральские пельмени. Пир во время зимы [эфир от 31.12] (2021) WEBRip 1080p от DolgOFF 1.75 GB ↑ 349 ↓ 239
2021-12-22 U Не время умирать / No Time to Die (2021) BDRip-AVC от HELLYWOOD | iTunes 1.46 GB ↑ 74 ↓ 31
2021-12-21 U Не время умирать / No Time to Die (2021) Hybrid 1080p | D | IMAX | iTunes 6.67 GB ↑ 57 ↓ 51
2021-12-18 U Не время умирать / No Time to Die (2021) BDRip 1080p от Generalfilm | iTunes 11.41 GB ↑ 44 ↓ 47

Отзывы
Зарегистрируйтесь чтобы добавить комментарий.
Торрент клиент
byTorrent - программа для загрузки торрент-файлов.

Скачать byTorrent


Поддержи torrent.by
российских рублей
(300 российских рублей это 4$)

Обратная связь rss
End ©