↑↓torrent.by
Поиск
Логин: Регистрация
Пароль: Восстановить пароль

Не время умирать / No Time to Die (2021) WEB-DL 1080p | TS

Скачать ne-vremya-umirat-no-time-to-die-2021-web-dl-1080p-ts.torrent
U Магнитная ссылка Размер: 11.30 GB Раздают: 121 Качают: 57 Добавлен: 2021-11-12 08:50:06
Не время умирать / No Time to Die (2021) WEB-DL 1080p | TS

Название: Не время умирать
Оригинальное название: No Time to Die
Год выхода: 2021
Жанр: боевик, триллер, приключения

Режиссер: Кэри Дзёдзи Фукунага

В ролях: Дэниел Крейг, Ана де Армас, Рами Малек, Леа Сейду, Лашана Линч, Ральф Файнс, Бен Уишоу, Наоми Харрис, Рори Киннер,
Джеффри Райт, Билли Магнуссен, Кристоф Вальц, Дэвид Денчик, Дали Бенссала, Лиза-Дора Соннет, Колин Дефо, Матильда Бурбин, Хью Деннис, Приянга Берфорд, Джо Гросси

О фильме:
Джеймс Бонд оставил оперативную службу и наслаждается спокойной жизнью на Ямайке. Все меняется, когда на острове появляется его старый друг Феликс Лейтер из ЦРУ с просьбой о помощи. Миссия по спасению похищенного ученого оказывается опаснее, чем предполагалось изначально. Бонд попадает в ловушку таинственного злодея, вооруженного опасным биологическим оружием.

Страна: Великобритания, США
Продолжительность: 02:43:23
Перевод: Профессиональный дублированный TS | (Ред. Sound Master)

Файл
Кодек: x.264
Качество: WEB-DL 1080p
Видео: AVC, 1920x800 (2.40:1), 23.976 fps, 9 062 kb/s
Аудио 1: AC3, 48.0 kHz, 2 ch, 192 kb/s |   RUS
Аудио 2: E-AC3, 48.0 kHz, 6 ch, 640 kb/s |  ENG  
Субтитры:  Русские (Forced, full), английские

Доп. информация: Дорожка с переводом получена микшированием очищенного голоса с оригинальной дорогой

Семпл


[+] MI
Общее
Уникальный идентификатор                 : 233553504832496116561615971163882828655 (0xAFB4C4D3D5D2A59C9763218F31C2B36F)
Полное имя                               : No.Time.To.Die.(2021).WEB-DL.1080p.mkv
Формат                                   : Matroska
Версия формата                           : Version 4 / Version 2
Размер файла                             : 11,3 Гбайт
Продолжительность                        : 2 ч. 43 м.
Общий поток                              : 9 897 Кбит/сек
Дата кодирования                         : UTC 2021-11-11 16:23:25
Программа кодирования                    : mkvmerge v8.3.0 ('Over the Horizon') 64bit
Библиотека кодирования                   : libebml v1.3.1 + libmatroska v1.4.2

Видео
Идентификатор                            : 1
Формат                                   : AVC
Формат/Информация                        : Advanced Video Codec
Профиль формата                          : High@L4
Настройки формата                        : CABAC / 4 Ref Frames
Параметр CABAC формата                   : Да
Параметр RefFrames формата               : 4 кадра
Идентификатор кодека                     : V_MPEG4/ISO/AVC
Продолжительность                        : 2 ч. 43 м.
Вид битрейта                             : Постоянный
Битрейт                                  : 9 062 Кбит/сек
Номинальный битрейт                      : 10 000 Кбит/сек
Ширина                                   : 1 920 пикселей
Высота                                   : 800 пикселей
Соотношение сторон                       : 2,40:1
Режим частоты кадров                     : Постоянный
Частота кадров                           : 23,976 (24000/1001) кадра/сек
Цветовое пространство                    : YUV
Субдискретизация насыщенности            : 4:2:0
Битовая глубина                          : 8 бит
Тип развёртки                            : Прогрессивная
Бит/(Пиксели*Кадры)                      : 0.246
Размер потока                            : 10,3 Гбайт (92%)
Default                                  : Да
Forced                                   : Нет
Цветовой диапазон                        : Limited
Основные цвета                           : BT.709
Характеристики трансфера                 : BT.709
Коэффициенты матрицы                     : BT.709

Аудио #1
Идентификатор                            : 2
Формат                                   : AC-3
Формат/Информация                        : Audio Coding 3
Коммерческое название                    : Dolby Digital
Идентификатор кодека                     : A_AC3
Продолжительность                        : 2 ч. 43 м.
Вид битрейта                             : Постоянный
Битрейт                                  : 192 Кбит/сек
Каналы                                   : 2 канала
Channel layout                           : L R
Частота                                  : 48,0 КГц
Частота кадров                           : 31,250 кадров/сек (1536 SPF)
Метод сжатия                             : С потерями
Размер потока                            : 224 Мбайт (2%)
Заголовок                                : DUB (Ред. Sound Master)
Язык                                     : Russian
Service kind                             : Complete Main
Default                                  : Да
Forced                                   : Нет

Аудио #2
Идентификатор                            : 3
Формат                                   : E-AC-3
Формат/Информация                        : Enhanced AC-3
Коммерческое название                    : Dolby Digital Plus
Идентификатор кодека                     : A_EAC3
Продолжительность                        : 2 ч. 43 м.
Вид битрейта                             : Постоянный
Битрейт                                  : 640 Кбит/сек
Каналы                                   : 6 каналов
Channel layout                           : L R C LFE Ls Rs
Частота                                  : 48,0 КГц
Частота кадров                           : 31,250 кадров/сек (1536 SPF)
Метод сжатия                             : С потерями
Размер потока                            : 748 Мбайт (6%)
Заголовок                                : Original
Язык                                     : English
Service kind                             : Complete Main
Default                                  : Нет
Forced                                   : Нет

Текст #1
Идентификатор                            : 4
Формат                                   : UTF-8
Идентификатор кодека                     : S_TEXT/UTF8
Идентификатор кодека/Информация          : UTF-8 Plain Text
Продолжительность                        : 2 ч. 35 м.
Битрейт                                  : 2 бит/сек
Count of elements                        : 83
Размер потока                            : 2,75 Кбайт (0%)
Заголовок                                : Forced
Язык                                     : Russian
Default                                  : Да
Forced                                   : Нет

Текст #2
Идентификатор                            : 5
Формат                                   : UTF-8
Идентификатор кодека                     : S_TEXT/UTF8
Идентификатор кодека/Информация          : UTF-8 Plain Text
Продолжительность                        : 2 ч. 36 м.
Битрейт                                  : 68 бит/сек
Count of elements                        : 1721
Размер потока                            : 78,2 Кбайт (0%)
Заголовок                                : Full
Язык                                     : Russian
Default                                  : Нет
Forced                                   : Нет

Текст #3
Идентификатор                            : 6
Формат                                   : UTF-8
Идентификатор кодека                     : S_TEXT/UTF8
Идентификатор кодека/Информация          : UTF-8 Plain Text
Продолжительность                        : 2 ч. 35 м.
Битрейт                                  : 42 бит/сек
Count of elements                        : 1671
Размер потока                            : 48,4 Кбайт (0%)
Язык                                     : English
Default                                  : Нет
Forced                                   : Нет

Меню
00:00:00.000                             : en:Chapter 1
00:11:57.125                             : en:Chapter 2
00:27:09.750                             : en:Chapter 3
00:43:46.000                             : en:Chapter 4
00:56:58.099                             : en:Chapter 5
01:04:09.000                             : en:Chapter 6
01:13:06.500                             : en:Chapter 7
01:22:28.832                             : en:Chapter 8
01:33:49.332                             : en:Chapter 9
01:51:42.000                             : en:Chapter 10
02:06:54.000                             : en:Chapter 11
02:25:23.500                             : en:Chapter 12
02:35:07.000                             : en:Chapter 13



Скриншоты:
[+] Всего файлов в раздаче - 1:

Похожие раздачи по запросу - время:
2022-01-18 U Джон Гришэм - Время прощать (2021) MP3 579.38 MB ↑ 40 ↓ 8
2022-01-16 U Левина Д. - Книга вдохновения. Сезонные рецепты, стиль и идеи домашнего декора на каждое время года (2022) PDF 11.95 MB ↑ 60 ↓ 30
2022-01-15 U Интимная жизнь во время оккупации / L'occupation intime (2011) DVB | P2 1.94 GB ↑ 217 ↓ 132
2022-01-01 U Уральские пельмени. Пир во время зимы [эфир от 31.12] (2021) WEBRip 1080p от DolgOFF 1.75 GB ↑ 349 ↓ 239
2021-12-22 U Не время умирать / No Time to Die (2021) BDRip-AVC от HELLYWOOD | iTunes 1.46 GB ↑ 74 ↓ 31
2021-12-21 U Не время умирать / No Time to Die (2021) Hybrid 1080p | D | IMAX | iTunes 6.67 GB ↑ 57 ↓ 51
2021-12-18 U Не время умирать / No Time to Die (2021) BDRip 1080p от Generalfilm | iTunes 11.41 GB ↑ 44 ↓ 47

Отзывы
Зарегистрируйтесь чтобы добавить комментарий.
Торрент клиент
byTorrent - программа для загрузки торрент-файлов.

Скачать byTorrent


Поддержи torrent.by
российских рублей
(300 российских рублей это 4$)

Обратная связь rss
End ©