↑↓torrent.by
Поиск
Логин: Регистрация
Пароль: Восстановить пароль

Не время умирать / No Time to Die (2021) WEB-DL-HEVC 2160p | 4K | HDR | P, L2, D | TS

Скачать ne-vremya-umirat-no-time-to-die-2021-web-dl-hevc-2160p-4k-hdr-p-l2-d-ts.torrent
U Магнитная ссылка Размер: 18.41 GB Раздают: 191 Качают: 134 Добавлен: 2021-11-12 08:50:25
Не время умирать / No Time to Die (2021) WEB-DL-HEVC 2160p | 4K | HDR | P, L2, D | TS

Название: Не время умирать
Оригинальное название: No Time to Die
Год выхода: 2021
Жанр: боевик, триллер, приключения

Режиссер: Кэри Дзёдзи Фукунага

В ролях: Дэниел Крейг, Ана де Армас, Рами Малек, Леа Сейду, Лашана Линч, Ральф Файнс, Бен Уишоу, Наоми Харрис, Рори Киннер,
Джеффри Райт, Билли Магнуссен, Кристоф Вальц, Дэвид Денчик, Дали Бенссала, Лиза-Дора Соннет, Колин Дефо, Матильда Бурбин, Хью Деннис, Приянга Берфорд, Джо Гросси

О фильме:
Джеймс Бонд оставил оперативную службу и наслаждается спокойной жизнью на Ямайке. Все меняется, когда на острове появляется его старый друг Феликс Лейтер из ЦРУ с просьбой о помощи. Миссия по спасению похищенного ученого оказывается опаснее, чем предполагалось изначально. Бонд попадает в ловушку таинственного злодея, вооруженного опасным биологическим оружием.

Страна: Великобритания, США
Продолжительность: 02:43:23
Перевод(ы):
#1: Профессиональный (многоголосый, закадровый) | Jaskier
#1: Любительский (двухголосый, закадровый) | Pazl Voice
#3: Профессиональный дублированный | TS

Файл
Кодек: H.265
Качество: WEB-DL 2160p
Видео: MPEG-H HEVC HDR Video, 3832x1596 (2.40:1), 23.976 fps, 14.3 Mb/s, 10 bit
Аудио 1: AC3, 48.0 kHz, 6 ch, 384 kb/s |  RUS [MVO, Jaskier]
Аудио 2: AC3, 48.0 kHz, 6 ch, 448 kb/s |  RUS [DVO, Pazl Voice]
Аудио 3: AC3, 48.0 kHz, 2 ch, 192 kb/s |   RUS [DUB, TS]
Аудио 4: E-AC3 JOC, 48.0 kHz, 6 ch, 768 kb/s |  ENG [Оригинал]  
Субтитры:  Русские (Forced, full), английские (Forced, full, SDH)

Семпл


[+] MI
Общее
Уникальный идентификатор                 : 221591396246901497314708921536516943792 (0xA6B4F356EB98A885B8BD0C01BFFF6FB0)
Полное имя                               : No.Time.to.Die.2021.WEB-DL.2160p.HDR.mkv
Формат                                   : Matroska
Версия формата                           : Version 4 / Version 2
Размер файла                             : 18,4 Гбайт
Продолжительность                        : 2 ч. 43 м.
Общий поток                              : 16,1 Мбит/сек
Дата кодирования                         : UTC 2021-11-11 13:23:03
Программа кодирования                    : mkvmerge v8.3.0 ('Over the Horizon') 64bit
Библиотека кодирования                   : libebml v1.3.1 + libmatroska v1.4.2

Видео
Идентификатор                            : 1
Формат                                   : HEVC
Формат/Информация                        : High Efficiency Video Coding
Профиль формата                          : Main 10@L5@High
HDR format                               : SMPTE ST 2086, HDR10 compatible
Идентификатор кодека                     : V_MPEGH/ISO/HEVC
Продолжительность                        : 2 ч. 43 м.
Битрейт                                  : 14,3 Мбит/сек
Ширина                                   : 3 832 пикселя
Высота                                   : 1 596 пикселей
Соотношение сторон                       : 2,40:1
Режим частоты кадров                     : Постоянный
Частота кадров                           : 23,976 кадра/сек
Цветовое пространство                    : YUV
Субдискретизация насыщенности            : 4:2:0 (Type 2)
Битовая глубина                          : 10 бит
Бит/(Пиксели*Кадры)                      : 0.098
Размер потока                            : 16,4 Гбайт (89%)
Default                                  : Да
Forced                                   : Нет
Цветовой диапазон                        : Limited
Основные цвета                           : BT.2020
Характеристики трансфера                 : PQ
Коэффициенты матрицы                     : BT.2020 non-constant
Mastering display color primaries        : BT.2020
Mastering display luminance              : min: 0.0050 cd/m2, max: 1000 cd/m2
Maximum Content Light Level              : 1753 cd/m2
Maximum Frame-Average Light Level        : 990 cd/m2

Аудио #1
Идентификатор                            : 2
Формат                                   : AC-3
Формат/Информация                        : Audio Coding 3
Коммерческое название                    : Dolby Digital
Идентификатор кодека                     : A_AC3
Продолжительность                        : 2 ч. 43 м.
Вид битрейта                             : Постоянный
Битрейт                                  : 384 Кбит/сек
Каналы                                   : 6 каналов
Channel layout                           : L R C LFE Ls Rs
Частота                                  : 48,0 КГц
Частота кадров                           : 31,250 кадров/сек (1536 SPF)
Метод сжатия                             : С потерями
Размер потока                            : 449 Мбайт (2%)
Заголовок                                : MVO (Jaskier)
Язык                                     : Russian
Service kind                             : Complete Main
Default                                  : Да
Forced                                   : Нет

Аудио #2
Идентификатор                            : 3
Формат                                   : AC-3
Формат/Информация                        : Audio Coding 3
Коммерческое название                    : Dolby Digital
Идентификатор кодека                     : A_AC3
Продолжительность                        : 2 ч. 43 м.
Вид битрейта                             : Постоянный
Битрейт                                  : 448 Кбит/сек
Каналы                                   : 6 каналов
Channel layout                           : L R C LFE Ls Rs
Частота                                  : 48,0 КГц
Частота кадров                           : 31,250 кадров/сек (1536 SPF)
Метод сжатия                             : С потерями
Размер потока                            : 524 Мбайт (3%)
Заголовок                                : DVO (Pazl Voice)
Язык                                     : Russian
Service kind                             : Complete Main
Default                                  : Нет
Forced                                   : Нет

Аудио #3
Идентификатор                            : 4
Формат                                   : AC-3
Формат/Информация                        : Audio Coding 3
Коммерческое название                    : Dolby Digital
Идентификатор кодека                     : A_AC3
Продолжительность                        : 2 ч. 43 м.
Вид битрейта                             : Постоянный
Битрейт                                  : 192 Кбит/сек
Каналы                                   : 2 канала
Channel layout                           : L R
Частота                                  : 48,0 КГц
Частота кадров                           : 31,250 кадров/сек (1536 SPF)
Метод сжатия                             : С потерями
Размер потока                            : 224 Мбайт (1%)
Заголовок                                : DUB (TS)
Язык                                     : Russian
Service kind                             : Complete Main
Default                                  : Нет
Forced                                   : Нет

Аудио #4
Идентификатор                            : 5
Формат                                   : E-AC-3 JOC
Формат/Информация                        : Enhanced AC-3 with Joint Object Coding
Коммерческое название                    : Dolby Digital Plus with Dolby Atmos
Идентификатор кодека                     : A_EAC3
Продолжительность                        : 2 ч. 43 м.
Вид битрейта                             : Постоянный
Битрейт                                  : 768 Кбит/сек
Каналы                                   : 6 каналов
Channel layout                           : L R C LFE Ls Rs
Частота                                  : 48,0 КГц
Частота кадров                           : 31,250 кадров/сек (1536 SPF)
Метод сжатия                             : С потерями
Размер потока                            : 898 Мбайт (5%)
Заголовок                                : Original
Язык                                     : English
Service kind                             : Complete Main
Default                                  : Нет
Forced                                   : Нет
Complexity index                         : 16
Number of dynamic objects                : 15
Bed channel count                        : 1 канал
Bed channel configuration                : LFE

Текст #1
Идентификатор                            : 6
Формат                                   : UTF-8
Идентификатор кодека                     : S_TEXT/UTF8
Идентификатор кодека/Информация          : UTF-8 Plain Text
Продолжительность                        : 2 ч. 15 м.
Битрейт                                  : 2 бит/сек
Count of elements                        : 55
Размер потока                            : 1,98 Кбайт (0%)
Заголовок                                : Forced
Язык                                     : Russian
Default                                  : Да
Forced                                   : Нет

Текст #2
Идентификатор                            : 7
Формат                                   : UTF-8
Идентификатор кодека                     : S_TEXT/UTF8
Идентификатор кодека/Информация          : UTF-8 Plain Text
Продолжительность                        : 2 ч. 36 м.
Битрейт                                  : 68 бит/сек
Count of elements                        : 1721
Размер потока                            : 78,9 Кбайт (0%)
Заголовок                                : Full (FOCS)
Язык                                     : Russian
Default                                  : Нет
Forced                                   : Нет

Текст #3
Идентификатор                            : 8
Формат                                   : UTF-8
Идентификатор кодека                     : S_TEXT/UTF8
Идентификатор кодека/Информация          : UTF-8 Plain Text
Продолжительность                        : 2 ч. 15 м.
Битрейт                                  : 1 бит/сек
Count of elements                        : 55
Размер потока                            : 1,19 Кбайт (0%)
Заголовок                                : Forced
Язык                                     : English
Default                                  : Нет
Forced                                   : Нет

Текст #4
Идентификатор                            : 9
Формат                                   : UTF-8
Идентификатор кодека                     : S_TEXT/UTF8
Идентификатор кодека/Информация          : UTF-8 Plain Text
Продолжительность                        : 2 ч. 35 м.
Битрейт                                  : 42 бит/сек
Count of elements                        : 1671
Размер потока                            : 48,4 Кбайт (0%)
Заголовок                                : Full
Язык                                     : English
Default                                  : Нет
Forced                                   : Нет

Текст #5
Идентификатор                            : 10
Формат                                   : UTF-8
Идентификатор кодека                     : S_TEXT/UTF8
Идентификатор кодека/Информация          : UTF-8 Plain Text
Продолжительность                        : 2 ч. 40 м.
Битрейт                                  : 52 бит/сек
Count of elements                        : 2136
Размер потока                            : 61,1 Кбайт (0%)
Заголовок                                : SDH
Язык                                     : English
Default                                  : Нет
Forced                                   : Нет

Меню
00:00:00.000                             : en:Chapter 1
00:11:57.125                             : en:Chapter 2
00:27:09.750                             : en:Chapter 3
00:43:46.000                             : en:Chapter 4
00:56:58.099                             : en:Chapter 5
01:04:09.000                             : en:Chapter 6
01:13:06.500                             : en:Chapter 7
01:22:28.832                             : en:Chapter 8
01:33:49.332                             : en:Chapter 9
01:51:42.000                             : en:Chapter 10
02:06:54.000                             : en:Chapter 11
02:25:23.500                             : en:Chapter 12
02:35:07.000                             : en:Chapter 13



Скриншоты:
[+] Всего файлов в раздаче - 1:

Похожие раздачи по запросу - время:
2022-01-18 U Джон Гришэм - Время прощать (2021) MP3 579.38 MB ↑ 40 ↓ 8
2022-01-16 U Левина Д. - Книга вдохновения. Сезонные рецепты, стиль и идеи домашнего декора на каждое время года (2022) PDF 11.95 MB ↑ 60 ↓ 30
2022-01-15 U Интимная жизнь во время оккупации / L'occupation intime (2011) DVB | P2 1.94 GB ↑ 217 ↓ 132
2022-01-01 U Уральские пельмени. Пир во время зимы [эфир от 31.12] (2021) WEBRip 1080p от DolgOFF 1.75 GB ↑ 349 ↓ 239
2021-12-22 U Не время умирать / No Time to Die (2021) BDRip-AVC от HELLYWOOD | iTunes 1.46 GB ↑ 74 ↓ 31
2021-12-21 U Не время умирать / No Time to Die (2021) Hybrid 1080p | D | IMAX | iTunes 6.67 GB ↑ 57 ↓ 51
2021-12-18 U Не время умирать / No Time to Die (2021) BDRip 1080p от Generalfilm | iTunes 11.41 GB ↑ 44 ↓ 47

Отзывы
Зарегистрируйтесь чтобы добавить комментарий.
Торрент клиент
byTorrent - программа для загрузки торрент-файлов.

Скачать byTorrent


Поддержи torrent.by
российских рублей
(300 российских рублей это 4$)

Обратная связь rss
End ©