↑↓torrent.by
Поиск
Логин: Регистрация
Пароль: Восстановить пароль

Не время умирать / No Time to Die (2021) WEB-DLRip-AVC от New-Team | P | Jaskier

Скачать ne-vremya-umirat-no-time-to-die-2021-web-dlrip-avc-ot-new-team-p-jaskier.torrent
U Магнитная ссылка Размер: 2.25 GB Раздают: 911 Качают: 278 Добавлен: 2021-11-12 08:50:31
Не время умирать / No Time to Die (2021) WEB-DLRip-AVC от New-Team | P | Jaskier

Не время умирать
No Time to Die

Страна: Великобритания, США
Жанр:  боевик, триллер, приключения
Год выпуска: 2021
Продолжительность: 02:43:23

Перевод: Профессиональный (многоголосый, закадровый) [Jaskier / KinoPub]
Субтитры: русские (полные (FOCS))
Оригинальная аудиодорожка: нет

Режиссер: Кэри Дзёдзи Фукунага / Cary Joji Fukunaga

В ролях: Дэниэл Крэйг, Рами Малек, Леа Сейду, Лашана Линч, Бен Уишоу, Наоми Харрис, Билли Магнуссен, Ана де Армас, Кристоф Вальц, Рэйф Файнс

Описание: Джеймс Бонд оставил оперативную службу и наслаждается спокойной жизнью на Ямайке. Все меняется, когда на острове появляется его старый друг Феликс Лейтер из ЦРУ с просьбой о помощи. Миссия по спасению похищенного ученого оказывается опаснее, чем предполагалось изначально. Бонд попадает в ловушку таинственного злодея, вооруженного опасным биологическим оружием.

Релиз:

Автор рипа: stalkerok

Семпл

Качество видео: WEB-DLRip-AVC | Исходник: No.Time.to.Die.2021.REPACK2.1080p.AMZN.WEB-DL.DDP5.1.Atmos.H264-NOTIMETOCRY
Формат видео: MKV
Видео кодек: AVC
Аудио кодек: AC3
Видео: AVC, 1584 Кбит/сек, 972x404 (2.40:1), 23,976 кадр/сек
Аудио: AC3, 384 Кбит/сек, 48 КГц, 5.1 - русский
Навигация по главам: есть


[+] x264/MediaInfo


---[Information] [11.11.2021 17:31:16] x264 [info]: frame I:1830  Avg QP:16.31  size: 43582
---[Information] [11.11.2021 17:31:16] x264 [info]: frame P:52686 Avg QP:18.40  size: 16992
---[Information] [11.11.2021 17:31:16] x264 [info]: frame B:180540 Avg QP:20.92  size:  5352
---[Information] [11.11.2021 17:31:16] x264 [info]: consecutive B-frames:  2.4%  2.7%  9.5% 25.8% 15.1% 30.0%  5.5%  5.6%  1.2%  0.5%  0.5%  0.4%  0.3%  0.2%  0.3%

General
Unique ID                                : 291876605889385566106143519942206920300 (0xDB9563B88E4898FB00EED9601395966C)
Complete name                            : J:No.Time.to.Die.2021No.Time.to.Die.2021.AMZN.WEB-DLRip.x264.Rus.Jaskier.stalkerok.New-Team.mkv
Format                                   : Matroska
Format version                           : Version 4 / Version 2
File size                                : 2.25 GiB
Duration                                 : 2 h 43 min
Overall bit rate                         : 1 970 kb/s
Movie name                               : No Time to Die (2021) | Rip by stalkerok
Encoded date                             : UTC 2021-11-11 14:33:52
Writing application                      : mkvmerge v62.0.0 ('Apollo') 64-bit
Writing library                          : libebml v1.4.2 + libmatroska v1.6.4

Video
ID                                       : 1
Format                                   : AVC
Format/Info                              : Advanced Video Codec
Format profile                           : High@L4.1
Format settings, CABAC                   : Yes
Format settings, ReFrames                : 12 frames
Codec ID                                 : V_MPEG4/ISO/AVC
Duration                                 : 2 h 43 min
Bit rate                                 : 1 584 kb/s
Width                                    : 972 pixels
Height                                   : 404 pixels
Display aspect ratio                     : 2.40:1
Frame rate mode                          : Constant
Frame rate                               : 23.976 (24000/1001) FPS
Color space                              : YUV
Chroma subsampling                       : 4:2:0
Bit depth                                : 8 bits
Scan type                                : Progressive
Bits/(Pixel*Frame)                       : 0.168
Stream size                              : 1.81 GiB (80%)
Writing library                          : x264 core 164 r3065+55M 280faca t_mod_New [(8 & 10)-bit@all X86_64]
Encoding settings                        : cabac=1 / ref=12 / deblock=1:-3:-2 / analyse=0x3:0x133 / me=umh / subme=10 / psy=1 / fade_compensate=0.00 / psy_rd=1.00:0.00 / mixed_ref=1 / me_range=32 / chroma_me=1 / trellis=2 / 8x8dct=1 / cqm=0 / deadzone=21,11 / fast_pskip=0 / chroma_qp_offset=-2 / threads=12 / lookahead_threads=3 / sliced_threads=0 / nr=0 / decimate=1 / interlaced=0 / bluray_compat=0 / constrained_intra=0 / fgo=0 / bframes=14 / b_pyramid=2 / b_adapt=2 / b_bias=0 / direct=3 / weightb=1 / open_gop=0 / weightp=2 / keyint=240 / keyint_min=23 / scenecut=40 / intra_refresh=0 / rc_lookahead=60 / rc=crf / mbtree=0 / crf=19.3000 / qcomp=0.65 / qpmin=0:0:0 / qpmax=69:69:69 / qpstep=4 / vbv_maxrate=50000 / vbv_bufsize=62500 / crf_max=0.0 / nal_hrd=none / filler=0 / ip_ratio=1.40 / pb_ratio=1.30 / aq=3:0.90 / aq-sensitivity=10.00 / aq-factor=1.00:1.00:1.00 / aq2=0 / aq3=0
Default                                  : Yes
Forced                                   : No

Audio
ID                                       : 2
Format                                   : AC-3
Format/Info                              : Audio Coding 3
Mode extension                           : CM (complete main)
Format settings, Endianness              : Big
Codec ID                                 : A_AC3
Duration                                 : 2 h 43 min
Bit rate mode                            : Constant
Bit rate                                 : 384 kb/s
Channel(s)                               : 6 channels
Channel positions                        : Front: L C R, Side: L R, LFE
Sampling rate                            : 48.0 kHz
Frame rate                               : 31.250 FPS (1536 spf)
Compression mode                         : Lossy
Stream size                              : 449 MiB (19%)
Title                                    : Jaskier
Language                                 : Russian
Default                                  : Yes
Forced                                   : No

Text
ID                                       : 3
Format                                   : UTF-8
Codec ID                                 : S_TEXT/UTF8
Codec ID/Info                            : UTF-8 Plain Text
Duration                                 : 2 h 36 min
Bit rate                                 : 68 b/s
Count of elements                        : 1721
Stream size                              : 78.9 KiB (0%)
Title                                    : FOCS
Language                                 : Russian
Default                                  : No
Forced                                   : No

Menu
00:00:00.000                             : en:Chapter 1
00:11:57.125                             : en:Chapter 2
00:27:09.750                             : en:Chapter 3
00:43:46.000                             : en:Chapter 4
00:56:58.099                             : en:Chapter 5
01:04:09.000                             : en:Chapter 6
01:13:06.500                             : en:Chapter 7
01:22:28.832                             : en:Chapter 8
01:33:49.332                             : en:Chapter 9
01:51:42.000                             : en:Chapter 10
02:06:54.000                             : en:Chapter 11
02:25:23.500                             : en:Chapter 12
02:35:07.000                             : en:Chapter 13




[+] Скрытый текст
Прощай Джеймс Бонд.



Скриншоты:
[+] Всего файлов в раздаче - 1:

Похожие раздачи по запросу - время:
2022-01-18 U Джон Гришэм - Время прощать (2021) MP3 579.38 MB ↑ 40 ↓ 8
2022-01-16 U Левина Д. - Книга вдохновения. Сезонные рецепты, стиль и идеи домашнего декора на каждое время года (2022) PDF 11.95 MB ↑ 60 ↓ 30
2022-01-15 U Интимная жизнь во время оккупации / L'occupation intime (2011) DVB | P2 1.94 GB ↑ 217 ↓ 132
2022-01-01 U Уральские пельмени. Пир во время зимы [эфир от 31.12] (2021) WEBRip 1080p от DolgOFF 1.75 GB ↑ 349 ↓ 239
2021-12-22 U Не время умирать / No Time to Die (2021) BDRip-AVC от HELLYWOOD | iTunes 1.46 GB ↑ 74 ↓ 31
2021-12-21 U Не время умирать / No Time to Die (2021) Hybrid 1080p | D | IMAX | iTunes 6.67 GB ↑ 57 ↓ 51
2021-12-18 U Не время умирать / No Time to Die (2021) BDRip 1080p от Generalfilm | iTunes 11.41 GB ↑ 44 ↓ 47

Отзывы
Зарегистрируйтесь чтобы добавить комментарий.
Торрент клиент
byTorrent - программа для загрузки торрент-файлов.

Скачать byTorrent


Поддержи torrent.by
российских рублей
(300 российских рублей это 4$)

Обратная связь rss
End ©