↑↓torrent.by
Поиск
Логин: Регистрация
Пароль: Восстановить пароль

Не время умирать / No Time to Die (2021) WEB-DLRip-AVC от ExKinoRay | Jaskier

Скачать ne-vremya-umirat-no-time-to-die-2021-web-dlrip-avc-ot-exkinoray-jaskier.torrent
U Магнитная ссылка Размер: 3.58 GB Раздают: 89 Качают: 42 Добавлен: 2021-11-13 08:14:19
Не время умирать / No Time to Die (2021) WEB-DLRip-AVC от ExKinoRay |  Jaskier

Не время умирать / No Time to Die



Информация о фильме:
Название: Не время умирать
Оригинальное название: No Time to Die
Год выхода: 2021
Жанр: боевик, триллер, приключения
Режиссер: Кэри Дзёдзи Фукунага
В ролях: Дэниел Крейг, Ана де Армас, Рами Малек, Леа Сейду, Лашана Линч, Ральф Файнс, Бен Уишоу, Наоми Харрис, Рори Киннер,  
Джеффри Райт, Билли Магнуссен, Кристоф Вальц, Дэвид Денчик, Дали Бенссала, Лиза-Дора Соннет, Колин Дефо, Матильда Бурбин, Хью Деннис, Приянга Берфорд, Джо Гросси

Описание: Джеймс Бонд оставил оперативную службу и наслаждается спокойной жизнью на Ямайке. Все меняется, когда на острове появляется его старый друг Феликс Лейтер из ЦРУ с просьбой о помощи. Миссия по спасению похищенного ученого оказывается опаснее, чем предполагалось изначально. Бонд попадает в ловушку к таинственному злодею, вооруженному опасным технологическим оружием.
 

 

Страна: Великобритания, США
Студия: Universal Pictures, Metro-Goldwyn-Mayer (MGM), B25, Cinesite, Danjaq, Eon Productions Ltd.
Продолжительность: 02:43:23
Перевод: Профессиональный (многоголосый, закадровый) - Jaskier



Информация о файле:
Кодек: AVC
Формат: MKV
Качество: WEB-DLRip-AVC
Видео: MPEG-4 AVC, 1024x426, 23.976 fps, 2300 kb/s  
Аудио RU:  AC3, 6 ch, 48 kHz, 384 kbps | Jaskier |  
Аудио EN:  AC3, 6 ch, 48 kHz, 448 kbps  
Субтитры: Русские (FOCS), aнглийские  

 




Релиз:  

Автор релиза:


[+] MediaInfo
x264 info: frame I:1926 Avg QP:14.40 size: 68458 [url=/tag/1/][/url]
x264 info: frame P:55682 Avg QP:17.86 size: 23664 [url=/tag/1/][/url]
x264 info: frame B:177447 Avg QP:19.66 size: 7711 [url=/tag/1/][/url]
x264 info: consecutive B-frames: 2.9% 5.7% 7.9% 26.5% 14.8% 29.5% 5.2% 5.1% 1.1% 0.5% 0.8% [url=/tag/1/][/url]
General [url=/tag/1/][/url]
Unique ID                                : 199353788440992206051368222778557340868 (0x95FA24A0240A9EF903347073A7CA1CC4) [url=/tag/1/][/url]
Complete name                            : D:uTorrent.No Time to Die.2021.MVO.JASKIER.WEB-DLRip-AVC.[wolf1245.ExKinoRay].mkv [url=/tag/1/][/url]
Format                                   : Matroska [url=/tag/1/][/url]
Format version                           : Version 4 [url=/tag/1/][/url]
File size                                : 3.58 GiB [url=/tag/1/][/url]
Duration                                 : 2 h 43 min [url=/tag/1/][/url]
Overall bit rate                         : 3 134 kb/s [url=/tag/1/][/url]
Movie name                               : .No Time to Die.2021.MVO.JASKIER.WEB-DLRip-AVC.[wolf1245.ExKinoRay] [url=/tag/1/][/url]
Encoded date                             : UTC 2021-11-12 18:47:15 [url=/tag/1/][/url]
Writing application                      : mkvmerge v62.0.0 ('Apollo') 64-bit [url=/tag/1/][/url]
Writing library                          : libebml v1.4.2 + libmatroska v1.6.4 [url=/tag/1/][/url]
[url=/tag/1/][/url]
Video [url=/tag/1/][/url]
ID                                       : 1 [url=/tag/1/][/url]
Format                                   : AVC [url=/tag/1/][/url]
Format/Info                              : Advanced Video Codec [url=/tag/1/][/url]
Format profile                           : High@L4.1 [url=/tag/1/][/url]
Format settings                          : CABAC / 12 Ref Frames [url=/tag/1/][/url]
Format settings, CABAC                   : Yes [url=/tag/1/][/url]
Format settings, Reference frames        : 12 frames [url=/tag/1/][/url]
Codec ID                                 : V_MPEG4/ISO/AVC [url=/tag/1/][/url]
Duration                                 : 2 h 43 min [url=/tag/1/][/url]
Bit rate                                 : 2 300 kb/s [url=/tag/1/][/url]
Width                                    : 1 024 pixels [url=/tag/1/][/url]
Height                                   : 426 pixels [url=/tag/1/][/url]
Display aspect ratio                     : 2.40:1 [url=/tag/1/][/url]
Frame rate mode                          : Constant [url=/tag/1/][/url]
Frame rate                               : 23.976 (24000/1001) FPS [url=/tag/1/][/url]
Color space                              : YUV [url=/tag/1/][/url]
Chroma subsampling                       : 4:2:0 [url=/tag/1/][/url]
Bit depth                                : 8 bits [url=/tag/1/][/url]
Scan type                                : Progressive [url=/tag/1/][/url]
Bits/(Pixel*Frame)                       : 0.220 [url=/tag/1/][/url]
Stream size                              : 2.62 GiB (73%) [url=/tag/1/][/url]
Title                                    : -=[wolf1245.ExKinoRay]=- [url=/tag/1/][/url]
Writing library                          : x264 core 161 r3020 d198931 [url=/tag/1/][/url]
Encoding settings                        : cabac=1 / ref=12 / deblock=1:-3:-3 / analyse=0x3:0x133 / me=umh / subme=10 / psy=1 / psy_rd=1.05:0.05 / mixed_ref=1 / me_range=48 / chroma_me=1 / trellis=2 / 8x8dct=1 / cqm=0 / deadzone=21,11 / fast_pskip=1 / chroma_qp_offset=-3 / threads=10 / lookahead_threads=2 / sliced_threads=0 / nr=0 / decimate=0 / interlaced=0 / bluray_compat=0 / constrained_intra=0 / bframes=10 / b_pyramid=2 / b_adapt=2 / b_bias=0 / direct=3 / weightb=1 / open_gop=0 / weightp=2 / keyint=240 / keyint_min=24 / scenecut=40 / intra_refresh=0 / rc_lookahead=60 / rc=2pass / mbtree=0 / bitrate=2300 / ratetol=1.0 / qcomp=0.60 / qpmin=0 / qpmax=69 / qpstep=4 / cplxblur=20.0 / qblur=0.5 / vbv_maxrate=50000 / vbv_bufsize=62500 / nal_hrd=none / filler=0 / ip_ratio=1.40 / pb_ratio=1.30 / aq=1:0.80 [url=/tag/1/][/url]
Language                                 : English [url=/tag/1/][/url]
Default                                  : Yes [url=/tag/1/][/url]
Forced                                   : No [url=/tag/1/][/url]
Color range                              : Limited [url=/tag/1/][/url]
Color primaries                          : BT.709 [url=/tag/1/][/url]
Transfer characteristics                 : BT.709 [url=/tag/1/][/url]
Matrix coefficients                      : BT.709 [url=/tag/1/][/url]
[url=/tag/1/][/url]
Audio #1 [url=/tag/1/][/url]
ID                                       : 2 [url=/tag/1/][/url]
Format                                   : AC-3 [url=/tag/1/][/url]
Format/Info                              : Audio Coding 3 [url=/tag/1/][/url]
Commercial name                          : Dolby Digital [url=/tag/1/][/url]
Codec ID                                 : A_AC3 [url=/tag/1/][/url]
Duration                                 : 2 h 43 min [url=/tag/1/][/url]
Bit rate mode                            : Constant [url=/tag/1/][/url]
Bit rate                                 : 384 kb/s [url=/tag/1/][/url]
Channel(s)                               : 6 channels [url=/tag/1/][/url]
Channel layout                           : L R C LFE Ls Rs [url=/tag/1/][/url]
Sampling rate                            : 48.0 kHz [url=/tag/1/][/url]
Frame rate                               : 31.250 FPS (1536 SPF) [url=/tag/1/][/url]
Compression mode                         : Lossy [url=/tag/1/][/url]
Stream size                              : 449 MiB (12%) [url=/tag/1/][/url]
Title                                    : [MVO] Jaskier [url=/tag/1/][/url]
Language                                 : Russian [url=/tag/1/][/url]
Service kind                             : Complete Main [url=/tag/1/][/url]
Default                                  : No [url=/tag/1/][/url]
Forced                                   : No [url=/tag/1/][/url]
[url=/tag/1/][/url]
Audio #2 [url=/tag/1/][/url]
ID                                       : 3 [url=/tag/1/][/url]
Format                                   : AC-3 [url=/tag/1/][/url]
Format/Info                              : Audio Coding 3 [url=/tag/1/][/url]
Commercial name                          : Dolby Digital [url=/tag/1/][/url]
Codec ID                                 : A_AC3 [url=/tag/1/][/url]
Duration                                 : 2 h 43 min [url=/tag/1/][/url]
Bit rate mode                            : Constant [url=/tag/1/][/url]
Bit rate                                 : 448 kb/s [url=/tag/1/][/url]
Channel(s)                               : 6 channels [url=/tag/1/][/url]
Channel layout                           : L R C LFE Ls Rs [url=/tag/1/][/url]
Sampling rate                            : 48.0 kHz [url=/tag/1/][/url]
Frame rate                               : 31.250 FPS (1536 SPF) [url=/tag/1/][/url]
Compression mode                         : Lossy [url=/tag/1/][/url]
Stream size                              : 524 MiB (14%) [url=/tag/1/][/url]
Title                                    : Original [url=/tag/1/][/url]
Language                                 : English [url=/tag/1/][/url]
Service kind                             : Complete Main [url=/tag/1/][/url]
Default                                  : Yes [url=/tag/1/][/url]
Forced                                   : No [url=/tag/1/][/url]
[url=/tag/1/][/url]
Text #1 [url=/tag/1/][/url]
ID                                       : 4 [url=/tag/1/][/url]
Format                                   : UTF-8 [url=/tag/1/][/url]
Codec ID                                 : S_TEXT/UTF8 [url=/tag/1/][/url]
Codec ID/Info                            : UTF-8 Plain Text [url=/tag/1/][/url]
Duration                                 : 2 h 36 min [url=/tag/1/][/url]
Bit rate                                 : 68 b/s [url=/tag/1/][/url]
Count of elements                        : 1721 [url=/tag/1/][/url]
Stream size                              : 78.9 KiB (0%) [url=/tag/1/][/url]
Title                                    : [Full [FOCS]] [url=/tag/1/][/url]
Language                                 : Russian [url=/tag/1/][/url]
Default                                  : No [url=/tag/1/][/url]
Forced                                   : No [url=/tag/1/][/url]
[url=/tag/1/][/url]
Text #2 [url=/tag/1/][/url]
ID                                       : 5 [url=/tag/1/][/url]
Format                                   : UTF-8 [url=/tag/1/][/url]
Codec ID                                 : S_TEXT/UTF8 [url=/tag/1/][/url]
Codec ID/Info                            : UTF-8 Plain Text [url=/tag/1/][/url]
Duration                                 : 2 h 35 min [url=/tag/1/][/url]
Bit rate                                 : 42 b/s [url=/tag/1/][/url]
Count of elements                        : 1671 [url=/tag/1/][/url]
Stream size                              : 48.4 KiB (0%) [url=/tag/1/][/url]
Title                                    : English [url=/tag/1/][/url]
Language                                 : English [url=/tag/1/][/url]
Default                                  : No [url=/tag/1/][/url]
Forced                                   : No [url=/tag/1/][/url]
[url=/tag/1/][/url]
Menu [url=/tag/1/][/url]
00:00:00.000                             : :Chapter 1 [url=/tag/1/][/url]
00:11:57.125                             : :Chapter 2 [url=/tag/1/][/url]
00:27:09.750                             : :Chapter 3 [url=/tag/1/][/url]
00:43:46.000                             : :Chapter 4 [url=/tag/1/][/url]
00:56:58.099                             : :Chapter 5 [url=/tag/1/][/url]
01:04:09.000                             : :Chapter 6 [url=/tag/1/][/url]
01:13:06.500                             : :Chapter 7 [url=/tag/1/][/url]
01:22:28.832                             : :Chapter 8 [url=/tag/1/][/url]
01:33:49.332                             : :Chapter 9 [url=/tag/1/][/url]
01:51:42.000                             : :Chapter 10 [url=/tag/1/][/url]
02:06:54.000                             : :Chapter 11 [url=/tag/1/][/url]
02:25:23.500                             : :Chapter 12 [url=/tag/1/][/url]
02:35:07.000                             : :Chapter 13 [url=/tag/1/][/url]
[url=/tag/1/][/url]



Скриншоты:
[+] Всего файлов в раздаче - 1:

Похожие раздачи по запросу - время:
2022-01-18 U Джон Гришэм - Время прощать (2021) MP3 579.38 MB ↑ 40 ↓ 8
2022-01-16 U Левина Д. - Книга вдохновения. Сезонные рецепты, стиль и идеи домашнего декора на каждое время года (2022) PDF 11.95 MB ↑ 60 ↓ 30
2022-01-15 U Интимная жизнь во время оккупации / L'occupation intime (2011) DVB | P2 1.94 GB ↑ 217 ↓ 132
2022-01-01 U Уральские пельмени. Пир во время зимы [эфир от 31.12] (2021) WEBRip 1080p от DolgOFF 1.75 GB ↑ 349 ↓ 239
2021-12-22 U Не время умирать / No Time to Die (2021) BDRip-AVC от HELLYWOOD | iTunes 1.46 GB ↑ 74 ↓ 31
2021-12-21 U Не время умирать / No Time to Die (2021) Hybrid 1080p | D | IMAX | iTunes 6.67 GB ↑ 57 ↓ 51
2021-12-18 U Не время умирать / No Time to Die (2021) BDRip 1080p от Generalfilm | iTunes 11.41 GB ↑ 44 ↓ 47

Отзывы
Зарегистрируйтесь чтобы добавить комментарий.
Торрент клиент
byTorrent - программа для загрузки торрент-файлов.

Скачать byTorrent


Поддержи torrent.by
российских рублей
(300 российских рублей это 4$)

Обратная связь rss
End ©