↑↓torrent.by
Поиск
Логин: Регистрация
Пароль: Восстановить пароль

Не время умирать / No Time to Die (2021) WEB-DL 1080p от ExKinoRay | P, L1

Скачать ne-vremya-umirat-no-time-to-die-2021-web-dl-1080p-ot-exkinoray-p-l1.torrent
U Магнитная ссылка Размер: 11.88 GB Раздают: 128 Качают: 262 Добавлен: 2021-11-13 17:40:37
Не время умирать / No Time to Die (2021) WEB-DL 1080p от ExKinoRay | P, L1

Название: Не время умирать
Оригинальное название: No Time to Die
Год выхода: 2021
Жанр: Боевик, триллер, приключения
Режиссер: Кэри Дзёдзи Фукунага
В ролях: Дэниэл Крэйг, Рами Малек, Леа Сейду, Лашана Линч, Бен Уишоу, Наоми Харрис, Билли Магнуссен, Ана де Армас, Кристоф Вальц, Рэйф Файнс

О фильме:
Джеймс Бонд оставил оперативную службу и наслаждается спокойной жизнью на Ямайке. Все меняется, когда на острове появляется его старый друг Феликс Лейтер из ЦРУ с просьбой о помощи. Миссия по спасению похищенного ученого оказывается опаснее, чем предполагалось изначально. Бонд попадает в ловушку к таинственному злодею, вооруженному опасным технологическим оружием

Страна: Великобритания, США
Студия: Metro-Goldwyn-Mayer (MGM), Universal Pictures, Eon Productions
Продолжительность: 02:43:23
Перевод: Профессиональный многоголосый, любительский одноголосый

Без рекламы!

Файл
Формат: MKV
Качество: WEB-DL 1080p | AMZN
Видео: MPEG-4 AVC, 9062 Кбит/с, 1920x800
Аудио 1: Русский (AC3, 6 ch, 384 Кбит/с) MVO (Jaskier)
Аудио 2: Русский (AC3, 2 ch, 192 Кбит/с) VO (feofanio)
Аудио 3: Английский (E-AC3 Atmos, 6 ch, 768 Кбит/с) Original
Субтитры: Русские (FOCS, feofanio), английские, испанские, французские, корейские

Семпл

Релиз:


[+] M/I

Общее
Уникальный идентификатор : 191643120590450225680495811339674102225 (0x902D1F5969EE5E50B7F724D65722A9D1)
Полное имя : D:РаздачаNo.Time.to.Die.2021.WEB-DL 1080p.ExKinoRay.mkv
Формат : Matroska
Версия формата : Version 4 / Version 2
Размер файла : 11,9 Гбайт
Продолжительность : 2 ч. 43 м.
Общий поток : 10,4 Мбит/сек
Название фильма : Не время умирать.2021.WEB-DL 1080p.grab777 & ExKinoRay
Дата кодирования : UTC 2021-11-11 19:16:47
Программа кодирования : mkvmerge v7.3.0 ('Nouages') 64bit built on Oct 22 2014 18:53:34
Библиотека кодирования : libebml v1.3.0 + libmatroska v1.4.1

Видео
Идентификатор : 1
Формат : AVC
Формат/Информация : Advanced Video Codec
Профиль формата : High@L4
Настройки формата : CABAC / 4 Ref Frames
Параметр CABAC формата : Да
Параметр RefFrames формата : 4 кадра
Идентификатор кодека : V_MPEG4/ISO/AVC
Продолжительность : 2 ч. 43 м.
Вид битрейта : Постоянный
Битрейт : 9062 Кбит/сек
Номинальный битрейт : 10000 Кбит/сек
Ширина : 1920 пикселей
Высота : 800 пикселей
Соотношение сторон : 2,40:1
Режим частоты кадров : Постоянный
Частота кадров : 23,976 (24000/1001) кадра/сек
Цветовое пространство : YUV
Субдискретизация насыщенности : 4:2:0
Битовая глубина : 8 бит
Тип развёртки : Прогрессивная
Бит/(Пиксели*Кадры) : 0.246
Размер потока : 10,3 Гбайт (87%)
Язык : English
Default : Да
Forced : Нет
Цветовой диапазон : Limited
Основные цвета : BT.709
Характеристики трансфера : BT.709
Коэффициенты матрицы : BT.709

Аудио #1
Идентификатор : 2
Формат : AC-3
Формат/Информация : Audio Coding 3
Параметр Endianness формата : Big
Идентификатор кодека : A_AC3
Продолжительность : 2 ч. 43 м.
Вид битрейта : Постоянный
Битрейт : 384 Кбит/сек
Каналы : 6 каналов
Расположение каналов : Front: L C R, Side: L R, LFE
Частота : 48,0 КГц
Частота кадров : 31,250 кадров/сек (1536 SPF)
Битовая глубина : 16 бит
Метод сжатия : С потерями
Размер потока : 449 Мбайт (4%)
Заголовок : MVO (Jaskier)
Язык : Russian
Default : Да
Forced : Нет

Аудио #2
Идентификатор : 3
Формат : AC-3
Формат/Информация : Audio Coding 3
Параметр Endianness формата : Big
Идентификатор кодека : A_AC3
Продолжительность : 2 ч. 43 м.
Вид битрейта : Постоянный
Битрейт : 192 Кбит/сек
Каналы : 2 канала
Расположение каналов : Front: L R
Частота : 48,0 КГц
Частота кадров : 31,250 кадров/сек (1536 SPF)
Битовая глубина : 16 бит
Метод сжатия : С потерями
Размер потока : 224 Мбайт (2%)
Заголовок : VO (feofanio)
Язык : Russian  
Default : Нет
Forced : Нет

Аудио #3
Идентификатор : 4
Формат : E-AC-3
Формат/Информация : Enhanced Audio Coding 3
Профиль формата : E-AC-3+Atmos / E-AC-3
Параметр Endianness формата : Big
Идентификатор кодека : A_EAC3
Продолжительность : 2 ч. 43 м.
Вид битрейта : Постоянный
Битрейт : 768 Кбит/сек
Каналы : 15 objects / 6 каналов
Расположение каналов : 15 objects / Front: L C R, Side: L R, LFE
Частота : 48,0 КГц
Частота кадров : 187,500 кадров/сек (256 SPF)
Метод сжатия : С потерями
Размер потока : 898 Мбайт (7%)
Заголовок : Original
Язык : English
Default : Нет
Forced : Нет

Текст #1
Идентификатор : 5
Формат : UTF-8
Идентификатор кодека : S_TEXT/UTF8
Идентификатор кодека/Информация : UTF-8 Plain Text
Продолжительность : 2 ч. 36 м.
Битрейт : 68 бит/сек
ElementCount : 1721
Размер потока : 78,9 Кбайт (0%)
Заголовок : FOCS
Язык : Russian
Default : Нет
Forced : Нет

Текст #2
Идентификатор : 6
Формат : UTF-8
Идентификатор кодека : S_TEXT/UTF8
Идентификатор кодека/Информация : UTF-8 Plain Text
Продолжительность : 2 ч. 36 м.
Битрейт : 71 бит/сек
ElementCount : 1690
Размер потока : 82,0 Кбайт (0%)
Язык : Russian
Default : Нет
Forced : Нет

Текст #3
Идентификатор : 7
Формат : UTF-8
Идентификатор кодека : S_TEXT/UTF8
Идентификатор кодека/Информация : UTF-8 Plain Text
Продолжительность : 2 ч. 15 м.
Битрейт : 1 бит/сек
ElementCount : 55
Размер потока : 1,21 Кбайт (0%)
Заголовок : Forced
Язык : English
Default : Нет
Forced : Нет

Текст #4
Идентификатор : 8
Формат : UTF-8
Идентификатор кодека : S_TEXT/UTF8
Идентификатор кодека/Информация : UTF-8 Plain Text
Продолжительность : 2 ч. 35 м.
Битрейт : 41 бит/сек
ElementCount : 1707
Размер потока : 47,2 Кбайт (0%)
Язык : English
Default : Нет
Forced : Нет

Текст #5
Идентификатор : 9
Формат : UTF-8
Идентификатор кодека : S_TEXT/UTF8
Идентификатор кодека/Информация : UTF-8 Plain Text
Продолжительность : 2 ч. 40 м.
Битрейт : 50 бит/сек
ElementCount : 2191
Размер потока : 59,5 Кбайт (0%)
Заголовок : SDH
Язык : English
Default : Нет
Forced : Нет

Текст #6
Идентификатор : 10
Формат : UTF-8
Идентификатор кодека : S_TEXT/UTF8
Идентификатор кодека/Информация : UTF-8 Plain Text
Продолжительность : 2 ч. 42 м.
Битрейт : 39 бит/сек
ElementCount : 1693
Размер потока : 46,7 Кбайт (0%)
Заголовок : Latin American
Язык : Spanish
Default : Нет
Forced : Нет

Текст #7
Идентификатор : 11
Формат : UTF-8
Идентификатор кодека : S_TEXT/UTF8
Идентификатор кодека/Информация : UTF-8 Plain Text
Продолжительность : 2 ч. 39 м.
Битрейт : 33 бит/сек
ElementCount : 1538
Размер потока : 38,7 Кбайт (0%)
Язык : French
Default : Нет
Forced : Нет

Текст #8
Идентификатор : 12
Формат : UTF-8
Идентификатор кодека : S_TEXT/UTF8
Идентификатор кодека/Информация : UTF-8 Plain Text
Продолжительность : 2 ч. 42 м.
Битрейт : 37 бит/сек
ElementCount : 1655
Размер потока : 44,8 Кбайт (0%)
Язык : Korean
Default : Нет
Forced : Нет

Меню
00:00:00.000 : en:Chapter 1
00:11:57.125 : en:Chapter 2
00:27:09.750 : en:Chapter 3
00:43:46.000 : en:Chapter 4
00:56:58.099 : en:Chapter 5
01:04:09.000 : en:Chapter 6
01:13:06.500 : en:Chapter 7
01:22:28.832 : en:Chapter 8
01:33:49.332 : en:Chapter 9
01:51:42.000 : en:Chapter 10
02:06:54.000 : en:Chapter 11
02:25:23.500 : en:Chapter 12
02:35:07.000 : en:Chapter 13



[+] Скрытый текст
Дальше будут только негры (как чёрная страшная самка 007) и педерасты (по типу кью), а может даже негров-тридварасов-трансгендеров завезут, кто знает.



[+] Страшный сон
Не время умирать / No Time to Die
Страна: Великобритания, США
Студия: Metro-Goldwyn-Mayer (MGM), Universal Pictures, Eon Productions
Жанр: Боевик, триллер, приключения
Год выпуска: 2021
Продолжительность: 02:43:23
Перевод: Одноголосый закадровый feofanio
Субтитры: русские (feofanio)
Оригинальная аудиодорожка: английский
Режиссер: feofanio
В ролях: feofanio
Описание: feofanio оставил озвучку фильмов и наслаждается спокойной жизнью на даче. Все меняется, когда оявляется его старый друг с пиратского трекера с просьбой о переводе нового фильма. Миссия по переводу фильма оказывается опаснее, чем предполагалось изначально. feofanio попадает в ловушку к вооруженным и отчаянным почитателям своего таланта.



Скриншоты:
[+] Всего файлов в раздаче - 1:

Похожие раздачи по запросу - время:
2022-01-18 U Джон Гришэм - Время прощать (2021) MP3 579.38 MB ↑ 40 ↓ 8
2022-01-16 U Левина Д. - Книга вдохновения. Сезонные рецепты, стиль и идеи домашнего декора на каждое время года (2022) PDF 11.95 MB ↑ 60 ↓ 30
2022-01-15 U Интимная жизнь во время оккупации / L'occupation intime (2011) DVB | P2 1.94 GB ↑ 217 ↓ 132
2022-01-01 U Уральские пельмени. Пир во время зимы [эфир от 31.12] (2021) WEBRip 1080p от DolgOFF 1.75 GB ↑ 349 ↓ 239
2021-12-22 U Не время умирать / No Time to Die (2021) BDRip-AVC от HELLYWOOD | iTunes 1.46 GB ↑ 74 ↓ 31
2021-12-21 U Не время умирать / No Time to Die (2021) Hybrid 1080p | D | IMAX | iTunes 6.67 GB ↑ 57 ↓ 51
2021-12-18 U Не время умирать / No Time to Die (2021) BDRip 1080p от Generalfilm | iTunes 11.41 GB ↑ 44 ↓ 47

Отзывы
Зарегистрируйтесь чтобы добавить комментарий.
Торрент клиент
byTorrent - программа для загрузки торрент-файлов.

Скачать byTorrent


Поддержи torrent.by
российских рублей
(300 российских рублей это 4$)

Обратная связь rss
End ©