↑↓torrent.by
Поиск
Логин: Регистрация
Пароль: Восстановить пароль

Звездный рубеж / Cosmic Sin (2021) BDRip 1080p | D, A

Скачать zvezdnyy-rubezh-cosmic-sin-2021-bdrip-1080p-d-a.torrent
U Магнитная ссылка Размер: 8.71 GB Раздают: 272 Качают: 235 Добавлен: 2021-06-02 20:09:49
Звездный рубеж / Cosmic Sin (2021) BDRip 1080p | D, A

Название: Звездный рубеж
Оригинальное название: Cosmic Sin
Год выхода: 2021
Жанр: Фантастика, боевик
Режиссер: Эдвард Дрэйк
В ролях: Фрэнк Грилло, Брюс Уиллис, Брэндон Томас Ли, Кори Лардж, К.Дж. Перри, Перри Ривз, Локлин Манро, Костас Мэндилор, Ева Де Доминичи, Аделаида Кейн, Сара Мэй Соммерс, Тревор Гретцки, Кристиан Хикс ,Марк Райнард, Роберт Ланен, Тревор Бразертон, Эрик Борк, Эверли Лардж, Табита Вудман

О фильме:
2524 год. Человечество сталкивается с расой инопланетных существ, но уже при первом контакте становится ясно, что они куда более продвинутые, чем Homo sapiens. Перед лицом неизвестности земляне испытывают страх и поспешно наносят первый удар. Джеймс Форд и небольшая группа храбрецов отправляются на территорию потенциальных захватчиков с целью их уничтожения. Возможно, им стоило прийти в гости с миром?

Страна: США
Студия: 308 Ent, BondIt Media Capital, Buffalo 8 Productions
Продолжительность: 01:28:13
Перевод: Дублированный | iTunes | Aвторский одноголосый | А. Дольский

Файл
Кодек: x.264
Качество: BDRip 1080p
Видео: MPEG-4 AVC, 10.7 Mбит/с, 1920x804, 23.976 кадр/с
Аудио #1: Русский (АС3, 6 ch, 384 Кбит/с, 48.0 KHz) Профессиональный (дублированный) iTunes
Аудио #2: Русский (АС3, 6 ch, 448 Кбит/с, 48.0 KHz) Aвторский (одноголосый, закадровый) Андрей Дольский
Аудио #3: Английский (DTS-HD MA, 6 ch, 2599 Кбит/с, 48.0 KHz)
Субтитры: Aнглийские
► Без Рекламы!
Трейлер




[+] MediaInfo
Источник: Cosmic.Sin.2021.1080p.BluRay.REMUX.AVC.DTS-HD.MA.5.1-FGT
General
Unique ID                      : 216259622275160074613378784916841695933 (0xA2B2169640754C8ABE64A3F983540ABD)
Complete name                  : Cosmic.Sin.2021.BDRip.1080p.x.264.mkv
Format                         : Matroska
Format version                 : Version 4
File size                      : 8.71 GiB
Duration                       : 1 h 28 min
Overall bit rate mode          : Variable
Overall bit rate               : 14.1 Mb/s
Encoded date                   : UTC 2021-06-02 09:22:52
Writing application            : mkvmerge v7.1.0 ('Good Love') 64bit built on Jul 27 2014 13:06:55
Writing library                : libebml v1.3.0 + libmatroska v1.4.1

Video
ID                             : 1
Format                         : AVC
Format/Info                    : Advanced Video Codec
Format profile                 : High@L4.1
Format settings                : CABAC / 5 Ref Frames
Format settings, CABAC         : Yes
Format settings, Reference fra : 5 frames
Codec ID                       : V_MPEG4/ISO/AVC
Duration                       : 1 h 28 min
Bit rate                       : 10.7 Mb/s
Width                          : 1 920 pixels
Height                         : 804 pixels
Display aspect ratio           : 2.40:1
Frame rate mode                : Constant
Frame rate                     : 23.976 (24000/1001) FPS
Color space                    : YUV
Chroma subsampling             : 4:2:0
Bit depth                      : 8 bits
Scan type                      : Progressive
Bits/(Pixel*Frame)             : 0.289
Stream size                    : 6.59 GiB (76%)
Writing library                : x264 core 157 r2958 57baac4
Encoding settings              : cabac=1 / ref=5 / deblock=1:-2:-2 / analyse=0x3:0x113 / me=umh / subme=11 / psy=1 / psy_rd=1.00:0.00 / mixed_ref=1 / me_range=32 / chroma_me=1 / trellis=2 / 8x8dct=1 / cqm=0 / deadzone=21,11 / fast_pskip=0 / chroma_qp_offset=-2 / threads=18 / lookahead_threads=4 / sliced_threads=0 / nr=0 / decimate=1 / interlaced=0 / bluray_compat=0 / constrained_intra=0 / bframes=10 / b_pyramid=2 / b_adapt=2 / b_bias=0 / direct=3 / weightb=1 / open_gop=0 / weightp=2 / keyint=240 / keyint_min=24 / scenecut=40 / intra_refresh=0 / rc=2pass / mbtree=0 / bitrate=10700 / ratetol=1.0 / qcomp=0.70 / qpmin=3 / qpmax=69 / qpstep=4 / cplxblur=20.0 / qblur=0.5 / ip_ratio=1.40 / pb_ratio=1.30 / aq=2:1.00
Language                       : English
Default                        : Yes
Forced                         : No
Color range                    : Limited
Color primaries                : BT.709
Transfer characteristics       : BT.709
Matrix coefficients            : BT.709

Audio #1
ID                             : 2
Format                         : AC-3
Format/Info                    : Audio Coding 3
Commercial name                : Dolby Digital
Codec ID                       : A_AC3
Duration                       : 1 h 28 min
Bit rate mode                  : Constant
Bit rate                       : 384 kb/s
Channel(s)                     : 6 channels
Channel layout                 : L R C LFE Ls Rs
Sampling rate                  : 48.0 kHz
Frame rate                     : 31.250 FPS (1536 SPF)
Compression mode               : Lossy
Stream size                    : 242 MiB (3%)
Title                          : DUB | iTunes
Language                       : Russian
Service kind                   : Complete Main
Default                        : Yes
Forced                         : No

Audio #2
ID                             : 3
Format                         : AC-3
Format/Info                    : Audio Coding 3
Commercial name                : Dolby Digital
Codec ID                       : A_AC3
Duration                       : 1 h 28 min
Bit rate mode                  : Constant
Bit rate                       : 448 kb/s
Channel(s)                     : 6 channels
Channel layout                 : L R C LFE Ls Rs
Sampling rate                  : 48.0 kHz
Frame rate                     : 31.250 FPS (1536 SPF)
Compression mode               : Lossy
Stream size                    : 283 MiB (3%)
Title                          : AVO | A. Дольский
Language                       : Russian
Service kind                   : Complete Main
Default                        : No
Forced                         : No

Audio #3
ID                             : 4
Format                         : DTS XLL
Format/Info                    : Digital Theater Systems
Commercial name                : DTS-HD Master Audio
Codec ID                       : A_DTS
Duration                       : 1 h 28 min
Bit rate mode                  : Variable
Bit rate                       : 2 599 kb/s
Channel(s)                     : 6 channels
Channel layout                 : C L R Ls Rs LFE
Sampling rate                  : 48.0 kHz
Frame rate                     : 93.750 FPS (512 SPF)
Bit depth                      : 24 bits
Compression mode               : Lossless
Stream size                    : 1.60 GiB (18%)
Title                          : DTS-HD MA 5.1
Language                       : English
Default                        : No
Forced                         : No

Text
ID                             : 5
Format                         : UTF-8
Codec ID                       : S_TEXT/UTF8
Codec ID/Info                  : UTF-8 Plain Text
Duration                       : 1 h 22 min
Bit rate                       : 44 b/s
Count of elements              : 961
Stream size                    : 27.0 KiB (0%)
Title                          : English-SRT
Language                       : English
Default                        : No
Forced                         : No

Menu
00:00:00.000                   : en:Chapter 01
00:07:28.656                   : en:Chapter 02
00:14:01.340                   : en:Chapter 03
00:19:38.010                   : en:Chapter 04
00:29:02.907                   : en:Chapter 05
00:35:38.511                   : en:Chapter 06
00:41:59.892                   : en:Chapter 07
00:50:04.876                   : en:Chapter 08
00:57:09.551                   : en:Chapter 09
01:04:17.144                   : en:Chapter 10
01:09:38.757                   : en:Chapter 11
01:16:40.178                   : en:Chapter 12
01:25:28.748                   : en:Chapter 13



Скриншоты:
[+] Всего файлов в раздаче - 1:

Похожие раздачи по запросу - звездный:
2021-10-11 U Звездный путь: Нижние палубы / Star Trek: Lower Decks [02х01-09 из 10] (2021) WEB-DL 720p | LostFilm 5.53 GB ↑ 23 ↓ 5
2021-09-20 U Звездный путь: Нижние палубы / Star Trek: Lower Decks [02х01-06 из 10] (2021) WEB-DL 720p | LostFilm 3.72 GB ↑ 17 ↓ 12
2021-06-02 U Звездный рубеж / Cosmic Sin (2021) BDRip от MegaPeer | iTunes 1.42 GB ↑ 516 ↓ 129

Отзывы
Зарегистрируйтесь чтобы добавить комментарий.
Загрузите программу
  byTorrent
Обратная связь
Copyleft ©