↑↓torrent.by
Поиск
Логин: Регистрация
Пароль: Восстановить пароль

Небо (2020) WEB-DL 1080p от ELEKTRI4KA

Скачать nebo-2020-web-dl-1080p-ot-elektri4ka.torrent
U Магнитная ссылка Размер: 2.81 GB Раздают: 2453 Качают: 824 Добавлен: 2021-11-19 09:56:57
Небо (2020) WEB-DL 1080p от ELEKTRI4KA

Название: Небо
Год выхода: 2020
Жанр: Биография, драма, боевик
Режиссер: Игорь Копылов
В ролях: Игорь Петренко, Иван Батарев, Сергей Губанов, Мария Миронова, Илья Носков, Николай Козак, Дмитрий Власкин, Сергей Жарков, Дмитрий Блохин, Григорий Некрасов

О фильме:
Подполковник Сошников и капитан Муравьев — два разных характера, две разные судьбы, которым суждено будет сойтись на военной базе Хмеймим. Во время боевого вылета самолет Сошникова был сбит турецким истребителем. Это событие освещали все мировые СМИ, а за ходом спасательной операции следила вся Россия.

Выпущено: Россия / Триикс Медиа
Продолжительность: 02:06:03
Озвучивание: Оригинальное

Файл
Формат: MKV
Качество: WEB-DL 1080p
Видео: MPEG-4 AVC, 2992 Kb/s, 1920x1080
Аудио: Russian: AC3, 192 Kb/s (2 ch)
Субтитры: Нет
Дополнительно: Нет

Релиз: &


[+] Инфо-файл:
Complete name                            : Nebo.2020.WEB-DL.1080p.ELEKTRI4KA.UNIONGANG.mkv
Format                                   : Matroska
Format version                           : Version 4
File size                                : 2.81 GiB
Duration                                 : 2 h 6 min
Overall bit rate                         : 3 187 kb/s
Encoded date                             : UTC 2021-11-18 08:10:07
Writing application                      : mkvmerge v8.3.0 ('Over the Horizon') 32bit
Writing library                          : libebml v1.3.1 + libmatroska v1.4.2

Video
ID                                       : 1
Format                                   : AVC
Format/Info                              : Advanced Video Codec
Format profile                           : High@L4.1
Format settings                          : CABAC / 4 Ref Frames
Format settings, CABAC                   : Yes
Format settings, Reference frames        : 4 frames
Codec ID                                 : V_MPEG4/ISO/AVC
Duration                                 : 2 h 6 min
Bit rate                                 : 2 992 kb/s
Width                                    : 1 920 pixels
Height                                   : 1 080 pixels
Display aspect ratio                     : 16:9
Frame rate mode                          : Constant
Frame rate                               : 25.000 FPS
Color space                              : YUV
Chroma subsampling                       : 4:2:0
Bit depth                                : 8 bits
Scan type                                : Interlaced
Scan type, store method                  : Separated fields
Scan order                               : Top Field First
Bits/(Pixel*Frame)                       : 0.058
Stream size                              : 2.63 GiB (94%)
Language                                 : English
Default                                  : Yes
Forced                                   : No
Color range                              : Limited
Color primaries                          : BT.709
Transfer characteristics                 : BT.709
Matrix coefficients                      : BT.709

Audio
ID                                       : 2
Format                                   : AC-3
Format/Info                              : Audio Coding 3
Commercial name                          : Dolby Digital
Codec ID                                 : A_AC3
Duration                                 : 2 h 6 min
Bit rate mode                            : Constant
Bit rate                                 : 192 kb/s
Channel(s)                               : 2 channels
Channel layout                           : L R
Sampling rate                            : 48.0 kHz
Frame rate                               : 31.250 FPS (1536 SPF)
Compression mode                         : Lossy
Stream size                              : 173 MiB (6%)
Language                                 : Russian
Service kind                             : Complete Main
Default                                  : Yes
Forced                                   : No



Скриншоты:
[+] Всего файлов в раздаче - 1:

Похожие раздачи по запросу - небо:
2022-01-16 U Небо (2021) WEB-DLRip-AVC от ExKinoRay | iTunes 1К2.23 GB ↑ 81 ↓ 16
2022-01-12 U Небо (2021) WEB-DL 1080p от ELEKTRI4KA | iTunes 4.93 GB ↑ 103 ↓ 48
2022-01-12 U Небо (2021) WEB-DL 720p от ELEKTRI4KA | iTunes 3.28 GB ↑ 64 ↓ 7
2022-01-12 U Небо (2021) WEB-DLRip от ELEKTRI4KA | iTunes 2.18 GB ↑ 45 ↓ 11
2022-01-12 U Небо (2021) WEB-DLRip от ELEKTRI4KA | iTunes 1.46 GB ↑ 15 ↓ 13
2022-01-11 U Полночное небо / The Midnight Sky (2020) WEB-DLRip от Twister & ExKinoRay | Netflix 1К1.46 GB ↑ 28 ↓ 6
2021-12-29 U Небо и земля [01-16 из 16] (2003) DVDRip-AVC 10.54 GB ↑ 21 ↓ 10

Отзывы
Зарегистрируйтесь чтобы добавить комментарий.
Торрент клиент
byTorrent - программа для загрузки торрент-файлов.

Скачать byTorrent


Поддержи torrent.by
российских рублей
(300 российских рублей это 4$)

Обратная связь rss
End ©