↑↓torrent.by
Поиск
Логин: Регистрация
Пароль: Восстановить пароль

Небо (2020) WEBRip 720p

Скачать nebo-2020-webrip-720p.torrent
U Магнитная ссылка Размер: 3.34 GB Раздают: 977 Качают: 200 Добавлен: 2021-11-19 23:49:40
Небо (2020) WEBRip 720p

Название: Небо
Год выхода: 2020
Жанр: Биография, военный, драма
Режиссер: Игорь Копылов

В ролях: Игорь Петренко, Иван Батарев, Сергей Губанов, Мария Миронова, Илья Носков, Николай Козак, Дмитрий Власкин, Сергей Жарков, Дмитрий Блохин, Григорий Некрасов

О фильме: Подполковник Сошников и капитан Муравьев — два разных характера, две разные судьбы, которым суждено будет сойтись на военной базе Хмеймим. Во время боевого вылета самолет Сошникова был сбит турецким истребителем. Это событие освещали все мировые СМИ, а за ходом спасательной операции следила вся Россия.

Выпущено: Россия / Триикс Медиа
Продолжительность: 02:06:02
Перевод: не требуется

Файл
Качество: WEBRip 720p
Формат: MKV
Видео: MPEG-4 AVC/H.264, 3642 Кбит/сек, 1280x536
Аудио: Русский: AC3, 2 ch, 192 Кбит/сек
Субтитры: нет

Трейлер


Семпл


[+] MediaInfo:
Общее
Уникальный идентификатор                 : 235773181995598824206163246893422985058 (0xB160435C6A07E94E31A290F598A1BF62)
Полное имя                               : F:1.ФИЛЬМЫ2. ФИЛЬМЫ СНГНебо (2020)Nebo (2020) WEBRip 720p.mkv
Формат                                   : Matroska
Версия формата                           : Version 4
Размер файла                             : 3,34 Гбайт
Продолжительность                        : 2 ч. 6 м.
Общий поток                              : 3 790 Кбит/сек
Программа кодирования                    : Lavf
Библиотека кодирования                   : Lavf
Авторское право                          : CVAT  TV
ErrorDetectionType                       : Per level 1
Attachments                              : poster.png
Язык                                     : und

Видео
Идентификатор                            : 1
Формат                                   : AVC
Формат/Информация                        : Advanced Video Codec
Профиль формата                          : High@L4.1
Настройки формата                        : 12 Ref Frames
Параметр CABAC формата                   : Нет
Параметр RefFrames формата               : 12 кадров
Идентификатор кодека                     : V_MPEG4/ISO/AVC
Продолжительность                        : 2 ч. 6 м.
Битрейт                                  : 3 642 Кбит/сек
Ширина                                   : 1 280 пикселей
Высота                                   : 536 пикселей
Соотношение сторон                       : 2,40:1
Режим частоты кадров                     : Постоянный
Частота кадров                           : 25,000 кадров/сек
Цветовое пространство                    : YUV
Субдискретизация насыщенности            : 4:2:0
Битовая глубина                          : 8 бит
Тип развёртки                            : Прогрессивная
Бит/(Пиксели*Кадры)                      : 0.212
Размер потока                            : 3,10 Гбайт (93%)
Заголовок                                : Russia (Triix Media)
Библиотека кодирования                   : x264 core 159 r2991 1771b55
Настройки программы                      : cabac=0 / ref=12 / deblock=1:-3:-3 / analyse=0x3:0x133 / me=umh / subme=11 / psy=1 / psy_rd=0.40:0.15 / mixed_ref=1 / me_range=32 / chroma_me=1 / trellis=2 / 8x8dct=1 / cqm=0 / deadzone=21,18 / fast_pskip=0 / chroma_qp_offset=-3 / threads=29 / lookahead_threads=4 / sliced_threads=0 / nr=0 / decimate=0 / interlaced=0 / bluray_compat=0 / constrained_intra=0 / bframes=16 / b_pyramid=2 / b_adapt=2 / b_bias=9 / direct=3 / weightb=1 / open_gop=0 / weightp=2 / keyint=250 / keyint_min=25 / scenecut=40 / intra_refresh=0 / rc_lookahead=60 / rc=2pass / mbtree=0 / bitrate=3642 / ratetol=1.0 / qcomp=0.70 / qpmin=3 / qpmax=69 / qpstep=4 / cplxblur=20.0 / qblur=0.5 / vbv_maxrate=5000 / vbv_bufsize=4000 / nal_hrd=none / filler=0 / ip_ratio=1.40 / pb_ratio=1.30 / aq=2:0.60
Язык                                     : English
Default                                  : Да
Forced                                   : Нет
Цветовой диапазон                        : Limited
Основные цвета                           : BT.709
Характеристики трансфера                 : BT.709
Коэффициенты матрицы                     : BT.709

Аудио
Идентификатор                            : 2
Формат                                   : AC-3
Формат/Информация                        : Audio Coding 3
Коммерческое название                    : Dolby Digital
Идентификатор кодека                     : A_AC3
Продолжительность                        : 2 ч. 6 м.
Вид битрейта                             : Постоянный
Битрейт                                  : 192 Кбит/сек
Каналы                                   : 2 канала
Channel layout                           : L R
Частота                                  : 48,0 КГц
Частота кадров                           : 31,250 кадров/сек (1536 SPF)
Битовая глубина                          : 32 бит
Метод сжатия                             : С потерями
Размер потока                            : 173 Мбайт (5%)
Заголовок                                : Original (Russian)
Язык                                     : Russian
Service kind                             : Complete Main
Default                                  : Да
Forced                                   : Нет



Скриншоты:
[+] Всего файлов в раздаче - 1:

Похожие раздачи по запросу - небо:
2022-01-16 U Небо (2021) WEB-DLRip-AVC от ExKinoRay | iTunes 1К2.23 GB ↑ 81 ↓ 16
2022-01-12 U Небо (2021) WEB-DL 1080p от ELEKTRI4KA | iTunes 4.93 GB ↑ 103 ↓ 48
2022-01-12 U Небо (2021) WEB-DL 720p от ELEKTRI4KA | iTunes 3.28 GB ↑ 64 ↓ 7
2022-01-12 U Небо (2021) WEB-DLRip от ELEKTRI4KA | iTunes 2.18 GB ↑ 45 ↓ 11
2022-01-12 U Небо (2021) WEB-DLRip от ELEKTRI4KA | iTunes 1.46 GB ↑ 15 ↓ 13
2022-01-11 U Полночное небо / The Midnight Sky (2020) WEB-DLRip от Twister & ExKinoRay | Netflix 1К1.46 GB ↑ 28 ↓ 6
2021-12-29 U Небо и земля [01-16 из 16] (2003) DVDRip-AVC 10.54 GB ↑ 21 ↓ 10

Отзывы
Зарегистрируйтесь чтобы добавить комментарий.
Торрент клиент
byTorrent - программа для загрузки торрент-файлов.

Скачать byTorrent


Поддержи torrent.by
российских рублей
(300 российских рублей это 4$)

Обратная связь rss
End ©