↑↓torrent.by
Поиск
Логин: Регистрация
Пароль: Восстановить пароль

Небо (2020) WEBRip от ExKinoRay

Скачать nebo-2020-webrip-ot-exkinoray.torrent
U Магнитная ссылка Размер: 755.91 MB Раздают: 146 Качают: 42 Добавлен: 2021-11-21 07:52:36
Небо (2020) WEBRip от ExKinoRay

Название: Небо
Год выхода: 2020
Жанр: Биография, драма, боевик
Режиссер: Игорь Копылов
В ролях: Игорь Петренко, Иван Батарев, Сергей Губанов, Мария Миронова, Илья Носков, Николай Козак, Дмитрий Власкин, Сергей Жарков, Дмитрий Блохин, Григорий Некрасов

О фильме:
Подполковник Сошников и капитан Муравьев — два разных характера, две разные судьбы, которым суждено будет сойтись на военной базе Хмеймим. Во время боевого вылета самолет Сошникова был сбит турецким истребителем. Это событие освещали все мировые СМИ, а за ходом спасательной операции следила вся Россия....

Страна: Россия
Студия: Триикс Медиа
Продолжительность: 02:06:02
Перевод: Не требуется

Файл
Кодек: XviD
Качество: WEBRip
Видео: 688x288 (2.39:1), 25 fps, XviD build 73 ~701 kbps avg, 0.14 bit/pixel
Звук: 48 kHz, MP3, 2 ch, ~128.00 kbps avg
Субтитры: Отсутствуют

Релиз:                                                                        
Рип изготовил:


[+] MediaInfo
General
Complete name               : D:Небо.WEBRip by.ExKinoRay & Shkiper.avi
Format                      : AVI
Format/Info                 : Audio Video Interleave
File size                   : 756 MiB
Duration                    : 2 h 6 min
Overall bit rate            : 838 kb/s
Writing application         : VirtualDubMod 1.5.10.3 | www.virtualdub-fr.org || (build 2550/release)
Writing library             : VirtualDubMod build 2550/release

Video
ID                          : 0
Format                      : MPEG-4 Visual
Format profile              : Advanced Simple@L5
Format settings             : BVOP1 / Custom Matrix
Format settings, BVOP       : 1
Format settings, QPel       : No
Format settings, GMC        : No warppoints
Format settings, Matrix     : Custom
Codec ID                    : XVID
Codec ID/Hint               : XviD
Duration                    : 2 h 6 min
Bit rate                    : 701 kb/s
Width                       : 688 pixels
Height                      : 288 pixels
Display aspect ratio        : 2.40:1
Frame rate                  : 25.000 FPS
Color space                 : YUV
Chroma subsampling          : 4:2:0
Bit depth                   : 8 bits
Scan type                   : Progressive
Compression mode            : Lossy
Bits/(Pixel*Frame)          : 0.141
Stream size                 : 632 MiB (84%)
Writing library             : XviD 73

Audio
ID                          : 1
Format                      : MPEG Audio
Format version              : Version 1
Format profile              : Layer 3
Codec ID                    : 55
Codec ID/Hint               : MP3
Duration                    : 2 h 6 min
Bit rate mode               : Constant
Bit rate                    : 128 kb/s
Channel(s)                  : 2 channels
Sampling rate               : 48.0 kHz
Frame rate                  : 41.667 FPS (1152 SPF)
Compression mode            : Lossy
Stream size                 : 115 MiB (15%)
Alignment                   : Aligned on interleaves
Interleave, duration        : 40  ms (1.00 video frame)
Interleave, preload duratio : 504  ms
Writing library             : LAME3.99r
Encoding settings           : -m s -V 4 -q 2 -lowpass 17 -b 128



Скриншоты:
[+] Всего файлов в раздаче - 1:

Похожие раздачи по запросу - небо:
2022-01-16 U Небо (2021) WEB-DLRip-AVC от ExKinoRay | iTunes 1К2.23 GB ↑ 81 ↓ 16
2022-01-12 U Небо (2021) WEB-DL 1080p от ELEKTRI4KA | iTunes 4.93 GB ↑ 103 ↓ 48
2022-01-12 U Небо (2021) WEB-DL 720p от ELEKTRI4KA | iTunes 3.28 GB ↑ 64 ↓ 7
2022-01-12 U Небо (2021) WEB-DLRip от ELEKTRI4KA | iTunes 2.18 GB ↑ 45 ↓ 11
2022-01-12 U Небо (2021) WEB-DLRip от ELEKTRI4KA | iTunes 1.46 GB ↑ 15 ↓ 13
2022-01-11 U Полночное небо / The Midnight Sky (2020) WEB-DLRip от Twister & ExKinoRay | Netflix 1К1.46 GB ↑ 28 ↓ 6
2021-12-29 U Небо и земля [01-16 из 16] (2003) DVDRip-AVC 10.54 GB ↑ 21 ↓ 10

Отзывы
Зарегистрируйтесь чтобы добавить комментарий.
Торрент клиент
byTorrent - программа для загрузки торрент-файлов.

Скачать byTorrent


Поддержи torrent.by
российских рублей
(300 российских рублей это 4$)

Обратная связь rss
End ©