↑↓torrent.by
Поиск
Логин: Регистрация
Пароль: Восстановить пароль

Небо (2020) WEB-DLRip-AVC от ExKinoRay

Скачать nebo-2020-web-dlrip-avc-ot-exkinoray.torrent
U Магнитная ссылка Размер: 1.53 GB Раздают: 636 Качают: 184 Добавлен: 2021-11-21 16:09:01
Небо (2020) WEB-DLRip-AVC от ExKinoRay

Небо



Информация о фильме:
Название:  Небо  
Год выхода: 2020
Жанр:  Биография, драма, боевик
Режиссер:  Игорь Копылов
В ролях:   Игорь Петренко, Иван Батарев, Сергей Губанов, Мария Миронова, Илья Носков, Николай Козак, Дмитрий Власкин, Сергей Жарков, Дмитрий Блохин, Григорий Некрасов

Описание:   Подполковник Сошников и капитан Муравьев — два разных характера, две разные судьбы, которым суждено будет сойтись на военной базе Хмеймим. Во время боевого вылета самолет Сошникова был сбит турецким истребителем. Это событие освещали все мировые СМИ, а за ходом спасательной операции следила вся Россия.
 

Страна:  Россия  
Студия:  Триикс Медиа
Продолжительность:  02:06:03
Перевод:  Не требуется - Русский

Кодек: AVC
Формат: MKV
Качество: WEB-DLRip-AVC
Видео: MPEG-4 AVC,  1024x428, 25,000 fps, 1550 kbps
Аудио RU:  AC3, 2 ch, 48 kHz, 192 kbps  

Релиз:  

Автор релиза:


[+] MediaInfo
x264 info: frame I:1770  Avg QP:19.21  size: 41416 [url=/tag/5/][/url]
x264 info: frame P:51454 Avg QP:20.68  size: 16183 [url=/tag/5/][/url]
x264 info: frame B:135836 Avg QP:22.89  size:  4097 [url=/tag/5/][/url]
x264 info: consecutive B-frames:  4.5%  5.6% 18.5% 30.8% 12.6% 23.1%  2.8%  0.9%  0.6%  0.2%  0.5% [url=/tag/5/][/url]
General [url=/tag/5/][/url]
Unique ID                                : 127910069653549902493595767136188586787 (0x603A9555572BD8403F4CF1CAD9B35B23) [url=/tag/5/][/url]
Complete name                            : D:uTorrentРипы wolf1245Nebo.2020.RUS.WEB-DLRip-AVC.[wolf1245.ExKinoRay].mkv [url=/tag/5/][/url]
Format                                   : Matroska [url=/tag/5/][/url]
Format version                           : Version 4 [url=/tag/5/][/url]
File size                                : 1.53 GiB [url=/tag/5/][/url]
Duration                                 : 2 h 6 min [url=/tag/5/][/url]
Overall bit rate                         : 1 742 kb/s [url=/tag/5/][/url]
Movie name                               : Nebo.2020.RUS.WEB-DLRip-AVC.[wolf1245.ExKinoRay] [url=/tag/5/][/url]
Encoded date                             : UTC 2021-11-21 08:12:29 [url=/tag/5/][/url]
Writing application                      : mkvmerge v63.0.0 ('Everything') 64-bit [url=/tag/5/][/url]
Writing library                          : libebml v1.4.2 + libmatroska v1.6.4 [url=/tag/5/][/url]
[url=/tag/5/][/url]
Video [url=/tag/5/][/url]
ID                                       : 1 [url=/tag/5/][/url]
Format                                   : AVC [url=/tag/5/][/url]
Format/Info                              : Advanced Video Codec [url=/tag/5/][/url]
Format profile                           : High@L4.1 [url=/tag/5/][/url]
Format settings                          : CABAC / 12 Ref Frames [url=/tag/5/][/url]
Format settings, CABAC                   : Yes [url=/tag/5/][/url]
Format settings, Reference frames        : 12 frames [url=/tag/5/][/url]
Codec ID                                 : V_MPEG4/ISO/AVC [url=/tag/5/][/url]
Duration                                 : 2 h 6 min [url=/tag/5/][/url]
Bit rate                                 : 1 550 kb/s [url=/tag/5/][/url]
Width                                    : 1 024 pixels [url=/tag/5/][/url]
Height                                   : 428 pixels [url=/tag/5/][/url]
Display aspect ratio                     : 2.40:1 [url=/tag/5/][/url]
Frame rate mode                          : Constant [url=/tag/5/][/url]
Frame rate                               : 25.000 FPS [url=/tag/5/][/url]
Color space                              : YUV [url=/tag/5/][/url]
Chroma subsampling                       : 4:2:0 [url=/tag/5/][/url]
Bit depth                                : 8 bits [url=/tag/5/][/url]
Scan type                                : Progressive [url=/tag/5/][/url]
Bits/(Pixel*Frame)                       : 0.141 [url=/tag/5/][/url]
Stream size                              : 1.36 GiB (89%) [url=/tag/5/][/url]
Title                                    : -=[wolf1245.ExKinoRay]=- [url=/tag/5/][/url]
Writing library                          : x264 core 163 r3060 5db6aa6 [url=/tag/5/][/url]
Encoding settings                        : cabac=1 / ref=12 / deblock=1:-2:-1 / analyse=0x3:0x133 / me=umh / subme=10 / psy=1 / psy_rd=1.05:0.13 / mixed_ref=1 / me_range=32 / chroma_me=1 / trellis=2 / 8x8dct=1 / cqm=0 / deadzone=21,11 / fast_pskip=1 / chroma_qp_offset=-3 / threads=10 / lookahead_threads=2 / sliced_threads=0 / nr=0 / decimate=0 / interlaced=0 / bluray_compat=0 / constrained_intra=0 / bframes=10 / b_pyramid=2 / b_adapt=2 / b_bias=0 / direct=3 / weightb=1 / open_gop=0 / weightp=2 / keyint=250 / keyint_min=25 / scenecut=40 / intra_refresh=0 / rc_lookahead=60 / rc=2pass / mbtree=0 / bitrate=1550 / ratetol=1.0 / qcomp=0.60 / qpmin=0 / qpmax=69 / qpstep=4 / cplxblur=20.0 / qblur=0.5 / vbv_maxrate=50000 / vbv_bufsize=62500 / nal_hrd=none / filler=0 / ip_ratio=1.40 / pb_ratio=1.30 / aq=3:0.80 [url=/tag/5/][/url]
Language                                 : Russian [url=/tag/5/][/url]
Default                                  : Yes [url=/tag/5/][/url]
Forced                                   : No [url=/tag/5/][/url]
Color range                              : Limited [url=/tag/5/][/url]
Color primaries                          : BT.709 [url=/tag/5/][/url]
Transfer characteristics                 : BT.709 [url=/tag/5/][/url]
Matrix coefficients                      : BT.709 [url=/tag/5/][/url]
[url=/tag/5/][/url]
Audio [url=/tag/5/][/url]
ID                                       : 2 [url=/tag/5/][/url]
Format                                   : AC-3 [url=/tag/5/][/url]
Format/Info                              : Audio Coding 3 [url=/tag/5/][/url]
Commercial name                          : Dolby Digital [url=/tag/5/][/url]
Codec ID                                 : A_AC3 [url=/tag/5/][/url]
Duration                                 : 2 h 6 min [url=/tag/5/][/url]
Bit rate mode                            : Constant [url=/tag/5/][/url]
Bit rate                                 : 192 kb/s [url=/tag/5/][/url]
Channel(s)                               : 2 channels [url=/tag/5/][/url]
Channel layout                           : L R [url=/tag/5/][/url]
Sampling rate                            : 48.0 kHz [url=/tag/5/][/url]
Frame rate                               : 31.250 FPS (1536 SPF) [url=/tag/5/][/url]
Compression mode                         : Lossy [url=/tag/5/][/url]
Stream size                              : 173 MiB (11%) [url=/tag/5/][/url]
Title                                    : RUS | Original [url=/tag/5/][/url]
Language                                 : Russian [url=/tag/5/][/url]
Service kind                             : Complete Main [url=/tag/5/][/url]
Default                                  : Yes [url=/tag/5/][/url]
Forced                                   : No [url=/tag/5/][/url]
[url=/tag/5/][/url]



Скриншоты:
[+] Всего файлов в раздаче - 1:

Похожие раздачи по запросу - небо:
2022-01-16 U Небо (2021) WEB-DLRip-AVC от ExKinoRay | iTunes 1К2.23 GB ↑ 81 ↓ 16
2022-01-12 U Небо (2021) WEB-DL 1080p от ELEKTRI4KA | iTunes 4.93 GB ↑ 103 ↓ 48
2022-01-12 U Небо (2021) WEB-DL 720p от ELEKTRI4KA | iTunes 3.28 GB ↑ 64 ↓ 7
2022-01-12 U Небо (2021) WEB-DLRip от ELEKTRI4KA | iTunes 2.18 GB ↑ 45 ↓ 11
2022-01-12 U Небо (2021) WEB-DLRip от ELEKTRI4KA | iTunes 1.46 GB ↑ 15 ↓ 13
2022-01-11 U Полночное небо / The Midnight Sky (2020) WEB-DLRip от Twister & ExKinoRay | Netflix 1К1.46 GB ↑ 28 ↓ 6
2021-12-29 U Небо и земля [01-16 из 16] (2003) DVDRip-AVC 10.54 GB ↑ 21 ↓ 10

Отзывы
Зарегистрируйтесь чтобы добавить комментарий.
Торрент клиент
byTorrent - программа для загрузки торрент-файлов.

Скачать byTorrent


Поддержи torrent.by
российских рублей
(300 российских рублей это 4$)

Обратная связь rss
End ©