↑↓torrent.by
Поиск
Логин: Регистрация
Пароль: Восстановить пароль

Клаустрофобы 2: Лига выживших / Escape Room: Tournament of Champions (2021) BDRip 720p | Extended Cut | D | Лицензия

Скачать klaustrofoby-2-liga-vyzhivshih-escape-room-tournament-of-champions-2021-bdrip-720p-extended-cut-d-licenziya.torrent
U Магнитная ссылка Размер: 3.28 GB Раздают: 221 Качают: 73 Добавлен: 2021-12-04 20:14:42
Клаустрофобы 2: Лига выживших / Escape Room: Tournament of Champions (2021) BDRip 720p | Extended Cut | D | Лицензия

Название: Клаустрофобы 2: Лига выживших
Оригинальное название: Escape Room: Tournament of Champions
Год выпуска: 2021
Жанр:  Ужасы, боевик
Режиссер: Адам Робител
В ролях: Тейлор Расселл, Логан Миллер, Томас Кокерел, Холлэнд Роден, Индия Мур, Карлито Оливеро, Джей Ирвинг, Джеймс Батлер, Джеймс Фрейн

О фильме:
Шестеро незнакомцев, каждый из которых стал единственным победителем одного из смертельно опасных квестов, вновь оказываются в игре не по своей воле. Но прежние задания покажутся им сущим пустяком по сравнению с жуткими испытаниями, которые ожидают их на этот раз: игра стала еще опаснее и безжалостнее, а шансы на выживание стремятся к нулю

Выпущено: США, Columbia Pictures, Original Film, Shaken Not Stirred
Продолжительность: 01:39:23
Перевод: Профессиональный (полное дублирование) | Лицензия
Субтитры: Русские, английские

Файл                                      
Формат: Matroska
Качество: BDRip 720p
Видео: 1280x536 at 23.976 fps, x264@L4.1, ~4000kbps
Аудио 1: AC3, 6 ch, ~448 kbps - | Русский | -
Аудио 2: AC3, 6 ch, ~448 kbps - | Английский | -
Формат субтитров: softsub (SRT)

***Релиз от: -=DoMiNo=-


[+] M/I
x264 info: frame I:1525  Avg QP:14.15  size:123609
x264 info: frame P:34681 Avg QP:16.95  size: 42076
x264 info: frame B:101554 Avg QP:18.88  size: 12061
x264 info: consecutive B-frames:  4.6%  4.8% 10.0% 29.3% 15.6% 24.2%  5.1%  5.2%  0.9%  0.3%

General
Unique ID                   : 32304650613883198508317875591640959037 (0x184DA63ED15F721674D441D54FB6C83D)
Complete name               : L:Escape.Room-Tournament.of.Champions.(1991).EXT.DUB.BDRip.x264.720p.mkv
Format                      : Matroska
Format version              : Version 4
File size                   : 3.28 GiB
Duration                    : 1 h 39 min
Overall bit rate            : 4 720 kb/s
Encoded date                : UTC 2021-12-04 07:08:50
Writing application         : mkvmerge v63.0.0 ('Everything') 64-bit
Writing library             : libebml v1.4.2 + libmatroska v1.6.4
Cover                       : Yes
Attachments                 : Cover.jpg / Cover 2.jpg

Video
ID                          : 1
Format                      : AVC
Format/Info                 : Advanced Video Codec
Format profile              : High@L4.1
Format settings             : CABAC / 12 Ref Frames
Format settings, CABAC      : Yes
Format settings, Reference  : 12 frames
Codec ID                    : V_MPEG4/ISO/AVC
Duration                    : 1 h 35 min
Bit rate                    : 4 000 kb/s
Width                       : 1 280 pixels
Height                      : 536 pixels
Display aspect ratio        : 2.40:1
Frame rate mode             : Constant
Frame rate                  : 23.976 (24000/1001) FPS
Color space                 : YUV
Chroma subsampling          : 4:2:0
Bit depth                   : 8 bits
Scan type                   : Progressive
Bits/(Pixel*Frame)          : 0.243
Stream size                 : 2.68 GiB (82%)
Title                       : -=DoMiNo=-
Writing library             : x264 core 161 r3020 d198931
Encoding settings           : cabac=1 / ref=12 / deblock=1:-3:-3 / analyse=0x3:0x133 / me=umh / subme=10 / psy=1 / psy_rd=1.00:0.05 / mixed_ref=1 / me_range=32 / chroma_me=1 / trellis=2 / 8x8dct=1 / cqm=0 / deadzone=21,11 / fast_pskip=0 / chroma_qp_offset=-3 / threads=24 / lookahead_threads=4 / sliced_threads=0 / nr=0 / decimate=0 / interlaced=0 / bluray_compat=0 / constrained_intra=0 / bframes=9 / b_pyramid=2 / b_adapt=2 / b_bias=0 / direct=3 / weightb=1 / open_gop=0 / weightp=2 / keyint=240 / keyint_min=24 / scenecut=40 / intra_refresh=0 / rc=2pass / mbtree=0 / bitrate=4000 / ratetol=1.0 / qcomp=0.60 / qpmin=0 / qpmax=69 / qpstep=4 / cplxblur=20.0 / qblur=0.5 / ip_ratio=1.40 / pb_ratio=1.30 / aq=1:1.00
Language                    : English
Default                     : Yes
Forced                      : No

Audio #1
ID                          : 2
Format                      : AC-3
Format/Info                 : Audio Coding 3
Commercial name             : Dolby Digital
Codec ID                    : A_AC3
Duration                    : 1 h 35 min
Bit rate mode               : Constant
Bit rate                    : 448 kb/s
Channel(s)                  : 6 channels
Channel layout              : L R C LFE Ls Rs
Sampling rate               : 48.0 kHz
Frame rate                  : 31.250 FPS (1536 SPF)
Compression mode            : Lossy
Stream size                 : 307 MiB (9%)
Title                       : DUB
Language                    : Russian
Service kind                : Complete Main
Default                     : Yes
Forced                      : No

Audio #2
ID                          : 3
Format                      : AC-3
Format/Info                 : Audio Coding 3
Commercial name             : Dolby Digital
Codec ID                    : A_AC3
Duration                    : 1 h 35 min
Bit rate mode               : Constant
Bit rate                    : 448 kb/s
Channel(s)                  : 6 channels
Channel layout              : L R C LFE Ls Rs
Sampling rate               : 48.0 kHz
Frame rate                  : 31.250 FPS (1536 SPF)
Compression mode            : Lossy
Stream size                 : 307 MiB (9%)
Language                    : English
Service kind                : Complete Main
Default                     : No
Forced                      : No

Text #1
ID                          : 4
Format                      : UTF-8
Codec ID                    : S_TEXT/UTF8
Codec ID/Info               : UTF-8 Plain Text
Duration                    : 1 h 38 min
Bit rate                    : 85 b/s
Count of elements           : 1350
Stream size                 : 61.8 KiB (0%)
Title                       : milf2010
Language                    : Russian
Default                     : No
Forced                      : No

Text #2
ID                          : 5
Format                      : UTF-8
Codec ID                    : S_TEXT/UTF8
Codec ID/Info               : UTF-8 Plain Text
Duration                    : 1 h 28 min
Bit rate                    : 67 b/s
Count of elements           : 1328
Stream size                 : 43.6 KiB (0%)
Language                    : English
Default                     : No
Forced                      : No

Text #3
ID                          : 6
Format                      : UTF-8
Codec ID                    : S_TEXT/UTF8
Codec ID/Info               : UTF-8 Plain Text
Duration                    : 1 h 28 min
Bit rate                    : 76 b/s
Count of elements           : 1513
Stream size                 : 49.8 KiB (0%)
Title                       : SDH
Language                    : English
Default                     : No
Forced                      : No

Menu
00:00:00.000                : en:Chapter 01
00:19:06.770                : en:Chapter 02
00:25:27.567                : en:Chapter 03
00:30:42.882                : en:Chapter 04
00:33:33.886                : en:Chapter 05
00:38:49.952                : en:Chapter 06
00:41:18.476                : en:Chapter 07
00:43:18.345                : en:Chapter 08
00:48:28.113                : en:Chapter 09
00:51:47.062                : en:Chapter 10
00:54:30.934                : en:Chapter 11
01:00:02.599                : en:Chapter 12
01:04:35.204                : en:Chapter 13
01:09:26.787                : en:Chapter 14
01:11:07.554                : en:Chapter 15
01:15:05.918                : en:Chapter 16



Скриншоты:
[+] Всего файлов в раздаче - 1:

Похожие раздачи по запросу - клаустрофобы:
2021-12-04 U Клаустрофобы 2: Лига выживших / Escape Room: Tournament of Champions (2021) BDRip 1080p | Extended Cut | D | Лицензия 1К9.15 GB ↑ 348 ↓ 211
2021-12-04 U Клаустрофобы 2: Лига выживших / Escape Room: Tournament of Champions (2021) BDRemux 1080p | Extended Cut | D | Лицензия 18.54 GB ↑ 104 ↓ 69
2021-12-04 U Клаустрофобы 2: Лига выживших / Escape Room: Tournament of Champions (2021) BDRip от MegaPeer | Extended Cut | Лицензия 1К1.46 GB ↑ 67 ↓ 30
2021-09-10 U Клаустрофобы 2: Лига выживших / Escape Room: Tournament of Champions (2021) WEB-DLRip-AVC | Pazl Voice | Extended Cut 1.76 GB ↑ 244 ↓ 83

Отзывы
Зарегистрируйтесь чтобы добавить комментарий.
Торрент клиент
byTorrent - программа для загрузки торрент-файлов.

Скачать byTorrent.exe

Скачать byTorrent.zip

Поддержи torrent.by
российских рублей
(300 российских рублей это 4$)

Обратная связь rss
End ©