↑↓torrent.by
Поиск
Логин: Регистрация
Пароль: Восстановить пароль

Клаустрофобы 2: Лига выживших / Escape Room: Tournament of Champions (2021) BDRip 1080p | Extended Cut | D | Лицензия

Скачать klaustrofoby-2-liga-vyzhivshih-escape-room-tournament-of-champions-2021-bdrip-1080p-extended-cut-d-licenziya.torrent
U Магнитная ссылка Размер: 9.15 GB Раздают: 348 Качают: 211 Добавлен: 2021-12-04 20:14:44
Клаустрофобы 2: Лига выживших / Escape Room: Tournament of Champions (2021) BDRip 1080p | Extended Cut | D | Лицензия

Название: Клаустрофобы 2: Лига выживших
Оригинальное название: Escape Room: Tournament of Champions
Год выхода: 2021
Жанр: Ужасы, боевик
Режиссер: Адам Робител

В ролях:
Тейлор Расселл, Логан Миллер, Дебора Энн Уолл, Томас Кокерел, Холлэнд Роден, Индия Мур, Карлито Оливеро, Matt Esof, Джеми-Ли Мани, Уэйн Харрисон и др.

Описание фильма:
Зои и Бэн пытаются найти тех, кто заставил их принять участие в том садистском испытании, но вместе с другими четырьмя победителями смертельно опасных квестов вновь оказываются в игре. Прежние задания покажутся им сущими пустяками по сравнению с тем, что их поджидает на этот раз: игра стала еще опаснее и безжалостнее, а шансы на выживание стремятся к нулю.

Страна: США, ЮАР
Студия: Columbia Pictures Corporation, Moonlighting Films South Africa, Original Film, Shaken Not Stirred
Продолжительность: 01:39:23
Перевод: Профессиональный (полное дублирование) Лицензия
Субтитры: Русские (Full), английские (Full, SDH)

Файл
Формат: MKV
Качество: BDRip (1080p)

Видео: 1920x804 (2,40:1), 23,976 fps, AVC (х264), High@L4.1, 10,9 Мбит/сек avg, 0.294 bit/pixel
Аудио RUS: 48 kHz, AC3, 3/2 (L,C,R,l,r) + LFE ch, ~448 kbps avg
Аудио ENG: 48 kHz, DTS, 3/2 (L,C,R,l,r) + LFE ch, ~2344 kbps avg


[+] MediaInfo
Общее
Уникальный идентификатор                 : 62404893377638498082814845823530381234 (0x2EF2BECAE1B5649E8A63281E69852FB2)
Полное имя                               : Escape.Room.Tournament.of.Champions.2021.D.BDRip.1080p.mkv
Формат                                   : Matroska
Версия формата                           : Version 4
Размер файла                             : 9,15 Гбайт
Продолжительность                        : 1 ч. 39 м.
Режим общего битрейта                    : Переменный
Общий поток                              : 13,2 Мбит/сек
Название фильма                          : Escape Room: Tournament of Champions (2021)
Дата кодирования                         : UTC 2021-12-04 05:29:34
Программа кодирования                    : mkvmerge v63.0.0 ('Everything') 64-bit
Библиотека кодирования                   : libebml v1.4.2 + libmatroska v1.6.4

Видео
Идентификатор                            : 1
Формат                                   : AVC
Формат/Информация                        : Advanced Video Codec
Профиль формата                          : High@L4.1
Настройки формата                        : CABAC / 5 Ref Frames
Параметр CABAC формата                   : Да
Параметр RefFrames формата               : 5 кадров
Идентификатор кодека                     : V_MPEG4/ISO/AVC
Продолжительность                        : 1 ч. 35 м.
Битрейт                                  : 10,9 Мбит/сек
Ширина                                   : 1 920 пикселей
Высота                                   : 804 пикселя
Соотношение сторон                       : 2,40:1
Режим частоты кадров                     : Постоянный
Частота кадров                           : 23,976 (24000/1001) кадра/сек
Цветовое пространство                    : YUV
Субдискретизация насыщенности            : 4:2:0
Битовая глубина                          : 8 бит
Тип развёртки                            : Прогрессивная
Бит/(Пиксели*Кадры)                      : 0.294
Размер потока                            : 7,28 Гбайт (80%)
Библиотека кодирования                   : x264 core 164 r3065 ae03d92
Настройки программы                      : cabac=1 / ref=5 / deblock=1:1:1 / analyse=0x3:0x133 / me=umh / subme=9 / psy=1 / psy_rd=0.70:0.00 / mixed_ref=1 / me_range=16 / chroma_me=1 / trellis=2 / 8x8dct=1 / cqm=0 / deadzone=21,11 / fast_pskip=0 / chroma_qp_offset=-2 / threads=24 / lookahead_threads=2 / sliced_threads=0 / nr=0 / decimate=0 / interlaced=0 / bluray_compat=0 / constrained_intra=0 / bframes=3 / b_pyramid=2 / b_adapt=2 / b_bias=0 / direct=3 / weightb=1 / open_gop=0 / weightp=2 / keyint=250 / keyint_min=23 / scenecut=40 / intra_refresh=0 / rc=crf / mbtree=0 / crf=17.0 / qcomp=0.60 / qpmin=0 / qpmax=69 / qpstep=4 / ip_ratio=1.40 / pb_ratio=1.30 / aq=3:1.00
Язык                                     : English
Default                                  : Да
Forced                                   : Нет
Цветовой диапазон                        : Limited
Коэффициенты матрицы                     : BT.709

Аудио #1
Идентификатор                            : 2
Формат                                   : AC-3
Формат/Информация                        : Audio Coding 3
Коммерческое название                    : Dolby Digital
Идентификатор кодека                     : A_AC3
Продолжительность                        : 1 ч. 35 м.
Вид битрейта                             : Постоянный
Битрейт                                  : 448 Кбит/сек
Каналы                                   : 6 каналов
Channel layout                           : L R C LFE Ls Rs
Частота                                  : 48,0 КГц
Частота кадров                           : 31,250 кадров/сек (1536 SPF)
Метод сжатия                             : С потерями
Размер потока                            : 307 Мбайт (3%)
Язык                                     : Russian
Default                                  : Да
Forced                                   : Нет

Аудио #2
Идентификатор                            : 3
Формат                                   : DTS XLL
Формат/Информация                        : Digital Theater Systems
Коммерческое название                    : DTS-HD Master Audio
Идентификатор кодека                     : A_DTS
Продолжительность                        : 1 ч. 35 м.
Вид битрейта                             : Переменный
Битрейт                                  : 2 344 Кбит/сек
Каналы                                   : 6 каналов
Channel layout                           : C L R Ls Rs LFE
Частота                                  : 48,0 КГц
Частота кадров                           : 93,750 кадра/сек (512 SPF)
Битовая глубина                          : 16 бит
Метод сжатия                             : Без потерь
Размер потока                            : 1,57 Гбайт (17%)
Язык                                     : English
Default                                  : Нет
Forced                                   : Нет

Текст #1
Идентификатор                            : 4
Формат                                   : UTF-8
Идентификатор кодека                     : S_TEXT/UTF8
Идентификатор кодека/Информация          : UTF-8 Plain Text
Продолжительность                        : 1 ч. 38 м.
Битрейт                                  : 85 бит/сек
Count of elements                        : 1350
Размер потока                            : 61,8 Кбайт (0%)
Заголовок                                : Full
Язык                                     : Russian
Default                                  : Нет
Forced                                   : Нет

Текст #2
Идентификатор                            : 5
Формат                                   : UTF-8
Идентификатор кодека                     : S_TEXT/UTF8
Идентификатор кодека/Информация          : UTF-8 Plain Text
Продолжительность                        : 1 ч. 28 м.
Битрейт                                  : 67 бит/сек
Count of elements                        : 1328
Размер потока                            : 43,6 Кбайт (0%)
Заголовок                                : English (SRT)
Язык                                     : English
Default                                  : Нет
Forced                                   : Нет

Текст #3
Идентификатор                            : 6
Формат                                   : UTF-8
Идентификатор кодека                     : S_TEXT/UTF8
Идентификатор кодека/Информация          : UTF-8 Plain Text
Продолжительность                        : 1 ч. 28 м.
Битрейт                                  : 76 бит/сек
Count of elements                        : 1513
Размер потока                            : 49,8 Кбайт (0%)
Заголовок                                : English (SDH SRT)
Язык                                     : English
Default                                  : Нет
Forced                                   : Нет

Меню
00:00:00.000                             : en:Chapter 01
00:19:06.771                             : en:Chapter 02
00:25:27.568                             : en:Chapter 03
00:30:42.883                             : en:Chapter 04
00:33:33.887                             : en:Chapter 05
00:38:50.203                             : en:Chapter 06
00:41:18.434                             : en:Chapter 07
00:43:18.346                             : en:Chapter 08
00:48:28.114                             : en:Chapter 09
00:51:47.313                             : en:Chapter 10
00:54:31.310                             : en:Chapter 11
01:00:02.599                             : en:Chapter 12
01:04:35.497                             : en:Chapter 13
01:09:27.121                             : en:Chapter 14
01:11:07.555                             : en:Chapter 15
01:15:05.918                             : en:Chapter 16
01:30:35.430                             : en:Chapter 17



Скриншоты:
[+] Всего файлов в раздаче - 1:

Похожие раздачи по запросу - клаустрофобы:
2021-12-04 U Клаустрофобы 2: Лига выживших / Escape Room: Tournament of Champions (2021) BDRip 720p | Extended Cut | D | Лицензия 3К3.28 GB ↑ 221 ↓ 73
2021-12-04 U Клаустрофобы 2: Лига выживших / Escape Room: Tournament of Champions (2021) BDRemux 1080p | Extended Cut | D | Лицензия 18.54 GB ↑ 104 ↓ 69
2021-12-04 U Клаустрофобы 2: Лига выживших / Escape Room: Tournament of Champions (2021) BDRip от MegaPeer | Extended Cut | Лицензия 1К1.46 GB ↑ 67 ↓ 30
2021-09-10 U Клаустрофобы 2: Лига выживших / Escape Room: Tournament of Champions (2021) WEB-DLRip-AVC | Pazl Voice | Extended Cut 1.76 GB ↑ 244 ↓ 83

Отзывы
Зарегистрируйтесь чтобы добавить комментарий.
Торрент клиент
byTorrent - программа для загрузки торрент-файлов.

Скачать byTorrent.exe

Скачать byTorrent.zip

Поддержи torrent.by
российских рублей
(300 российских рублей это 4$)

Обратная связь rss
End ©