↑↓torrent.by
Поиск
Логин: Регистрация
Пароль: Восстановить пароль

Один выстрел / One Shot (2021) BDRip 720p от ExKinoRay | Pazl Voice

Скачать odin-vystrel-one-shot-2021-bdrip-720p-ot-exkinoray-pazl-voice.torrent
U Магнитная ссылка Размер: 4.94 GB Раздают: 58 Качают: 9 Добавлен: 2021-12-06 07:32:44
Один выстрел / One Shot (2021) BDRip 720p от ExKinoRay | Pazl Voice

Название: Один выстрел
Оригинальное название: One Shot
Год выхода: 2021
Жанр: Боевик, триллер
Режиссер: Джеймс Нанн
В ролях: Скотт Эдкинс, Эшли Грин, Райан Филипп, Эммануэль Имани, Дино Келли, Джек Парр, Вильям Эль Гарди, Теренс Мэйнард, Джесс Лиодин, Ли Чарльз

О фильме:
Элитный отряд спецназа отправляется на расположенную на острове секретную базу ЦРУ, чтобы отконвоировать заключенного, но внезапно военные подвергаются нападению неизвестных. Оказавшись в ловушке и отражая многочисленные атаки, бойцы вынуждены всеми силами защищать своего подопечного.

Страна: Великобритания
Студия: Fiction Films, Signature Films
Продолжительность: 01:36:44
Перевод: Любительский двухголосый | Pazl Voice

Файл
Формат: MKV
Качество: BDRip 720p
Видео: MPEG-4 AVC, 5343 Кбит/с, 1280x640
Аудио 1: Русский (AC3, 6 ch, 448 Кбит/с) DVO (Pazl Voice)
Аудио 2: Английский (DTS, 6 ch, 1509 Кбит/с) Original
Субтитры: Русские, английские

Семпл

Релиз:


[+] M/I

Общее
Уникальный идентификатор : 200167264195713949541193425958985259437 (0x9696D013AA2A63A6ABC8E9DFAE1BD9AD)
Полное имя : D:РаздачаOdin.Vystrel.2021.BDRip 720p.ExKinoRayOdin.Vystrel.2021.BDRip 720p.ExKinoRay.mkv
Формат : Matroska
Версия формата : Version 4 / Version 2
Размер файла : 4,94 Гбайт
Продолжительность : 1 ч. 36 м.
Общий поток : 7303 Кбит/сек
Название фильма : One Shot.2021.BDRip 720p.grab777 & ExKinoRay
Дата кодирования : UTC 2021-12-05 19:55:04
Программа кодирования : mkvmerge v7.3.0 ('Nouages') 64bit built on Oct 22 2014 18:53:34
Библиотека кодирования : libebml v1.3.0 + libmatroska v1.4.1

Видео
Идентификатор : 1
Формат : AVC
Формат/Информация : Advanced Video Codec
Профиль формата : High@L4.1
Настройки формата : CABAC / 10 Ref Frames
Параметр CABAC формата : Да
Параметр RefFrames формата : 10 кадров
Идентификатор кодека : V_MPEG4/ISO/AVC
Продолжительность : 1 ч. 36 м.
Битрейт : 5343 Кбит/сек
Ширина : 1280 пикселей
Высота : 640 пикселей
Соотношение сторон : 2,000
Режим частоты кадров : Постоянный
Частота кадров : 23,976 (24000/1001) кадра/сек
Цветовое пространство : YUV
Субдискретизация насыщенности : 4:2:0
Битовая глубина : 8 бит
Тип развёртки : Прогрессивная
Бит/(Пиксели*Кадры) : 0.272
Размер потока : 3,61 Гбайт (73%)
Библиотека кодирования : x264 core 157 r2938 2b00a84 TnP@MTeam Mod
Настройки программы : cabac=1 / ref=10 / deblock=1:-3:-3 / analyse=0x3:0x133 / me=umh / subme=10 / psy=1 / psy_rd=1.05:0.00 / mixed_ref=1 / me_range=32 / chroma_me=1 / trellis=2 / 8x8dct=1 / cqm=0 / deadzone=21,11 / fast_pskip=0 / chroma_qp_offset=-2 / threads=12 / lookahead_threads=2 / sliced_threads=0 / nr=0 / decimate=0 / interlaced=0 / bluray_compat=0 / constrained_intra=0 / bframes=8 / b_pyramid=2 / b_adapt=2 / b_bias=0 / direct=3 / weightb=1 / open_gop=0 / weightp=2 / keyint=250 / keyint_min=24 / scenecut=40 / intra_refresh=0 / rc_lookahead=250 / rc=crf / mbtree=0 / crf=16.8 / qcomp=0.60 / qpmin=0 / qpmax=69 / qpstep=4 / vbv_maxrate=62500 / vbv_bufsize=78125 / crf_max=0.0 / nal_hrd=none / filler=0 / ip_ratio=1.30 / pb_ratio=1.20 / aq=3:0.80
Язык : English
Default : Да
Forced : Нет
Цветовой диапазон : Limited
Основные цвета : BT.709
Коэффициенты матрицы : BT.709

Аудио #1
Идентификатор : 2
Формат : AC-3
Формат/Информация : Audio Coding 3
Параметр Endianness формата : Big
Идентификатор кодека : A_AC3
Продолжительность : 1 ч. 36 м.
Вид битрейта : Постоянный
Битрейт : 448 Кбит/сек
Каналы : 6 каналов
Расположение каналов : Front: L C R, Side: L R, LFE
Частота : 48,0 КГц
Частота кадров : 31,250 кадров/сек (1536 SPF)
Битовая глубина : 16 бит
Метод сжатия : С потерями
Размер потока : 310 Мбайт (6%)
Заголовок : DVO (Pazl Voice)
Язык : Russian
Default : Да
Forced : Нет

Аудио #2
Идентификатор : 3
Формат : DTS
Формат/Информация : Digital Theater Systems
Режим : 16
Параметр Endianness формата : Big
Идентификатор кодека : A_DTS
Продолжительность : 1 ч. 36 м.
Вид битрейта : Постоянный
Битрейт : 1509 Кбит/сек
Каналы : 6 каналов
Расположение каналов : Front: L C R, Side: L R, LFE
Частота : 48,0 КГц
Частота кадров : 93,750 кадра/сек (512 SPF)
Битовая глубина : 24 бит
Метод сжатия : С потерями
Размер потока : 1,02 Гбайт (21%)
Заголовок : Original
Язык : English
Default : Нет
Forced : Нет

Текст #1
Идентификатор : 4
Формат : UTF-8
Идентификатор кодека : S_TEXT/UTF8
Идентификатор кодека/Информация : UTF-8 Plain Text
Продолжительность : 1 ч. 31 м.
Битрейт : 47 бит/сек
ElementCount : 1110
Размер потока : 32,1 Кбайт (0%)
Язык : English
Default : Нет
Forced : Нет

Текст #2
Идентификатор : 5
Формат : UTF-8
Идентификатор кодека : S_TEXT/UTF8
Идентификатор кодека/Информация : UTF-8 Plain Text
Продолжительность : 1 ч. 32 м.
Битрейт : 52 бит/сек
ElementCount : 1254
Размер потока : 35,3 Кбайт (0%)
Заголовок : SDH
Язык : English
Default : Нет
Forced : Нет

Меню
00:00:00.000 : en:Chapter 01
00:08:51.448 : en:Chapter 02
00:16:17.143 : en:Chapter 03
00:24:00.981 : en:Chapter 04
00:32:01.336 : en:Chapter 05
00:40:35.558 : en:Chapter 06
00:47:34.143 : en:Chapter 07
00:55:21.902 : en:Chapter 08
01:05:48.027 : en:Chapter 09
01:16:46.852 : en:Chapter 10
01:23:59.409 : en:Chapter 11
01:33:30.063 : en:Chapter 12



Скриншоты:
[+] Всего файлов в раздаче - 2:

Похожие раздачи по запросу - один:
2022-01-09 U Один дома / Home Alone (1990) WEB-DLRip-AVC | D, P, P2 | Open Matte 2К2.19 GB ↑ 26 ↓ 9
2021-12-08 U Один выстрел / One Shot (2021) HDRip-AVC от ExKinoRay | Pazl Voice 1.86 GB ↑ 50 ↓ 8
2021-12-03 U Один выстрел / One Shot (2021) BDRip 1080p | Pazl Voice 10.71 GB ↑ 88 ↓ 54
2021-11-17 U Один дома / Home Sweet Home Alone (2021) WEB-DLRip-AVC | L 1.78 GB ↑ 293 ↓ 159
2021-11-11 U Один выстрел / One Shot (2021) WEB-DLRip-AVC от ExKinoRay | Pazl Voice 743.89 MB ↑ 65 ↓ 16
2021-11-10 U Один выстрел / One Shot (2021) WEB-DL 1080p | Pazl Voice 5.02 GB ↑ 364 ↓ 100
2021-11-10 U Один выстрел / One Shot (2021) WEB-DLRip-AVC | Pazl Voice 1.86 GB ↑ 78 ↓ 18

Отзывы
Зарегистрируйтесь чтобы добавить комментарий.
Торрент клиент
byTorrent - программа для загрузки торрент-файлов.

Скачать byTorrent


Поддержи torrent.by
российских рублей
(300 российских рублей это 4$)

Обратная связь rss
End ©