↑↓torrent.by
Поиск
Логин: Регистрация
Пароль: Восстановить пароль

Последняя дуэль / The Last Duel (2021) BDRip-AVC | P | Jaskier

Скачать poslednyaya-duel-the-last-2021-bdrip-avc-p-jaskier.torrent
U Магнитная ссылка Размер: 744.56 MB Раздают: 23 Качают: 15 Добавлен: 2021-12-06 07:33:06
Последняя дуэль / The Last Duel (2021) BDRip-AVC | P | Jaskier

Название: Последняя дуэль
Оригинальное название: The Last Duel
Год выпуска: 2021
Выпущено: США, Великобритания, 20th Century Studios, Pearl Street Films, Scott Free Productions
Жанр:  Боевик, история, драма
Режиссер: Ридли Скотт / Ridley Scott
В ролях: Мэтт Дэймон, Адам Драйвер, Джоди Комер, Харриет Уолтер, Бен Аффлек, Алекс Лоутер, Мартон Чокаш, Уильям Хьюстон, Оливер Коттон, Орелиен Лорнье

О фильме:
Нормандский рыцарь Жан де Карруж по возвращении с войны узнаёт, что его сосед и соперник Жак Ле Гри изнасиловал его жену Маргарит. Однако у Ле Гри обнаружились сильные союзники, словам женщины никто не верит, и Карруж обращается за помощью лично к королю Франции Карлу VI. Заслушав все свидетельства, король постановил, что конфликт должен быть разрешён в честном поединке. От исхода битвы зависит судьба не только Ле Гри и Карружа, но и жены последнего. В случае поражения мужа её должны сжечь на костре за ложные обвинения.

Продолжительность: 02:32:43
Перевод: Профессиональный, многоголосый закадровый (Jaskier)
Субтитры: Русские (Forced, full)

Файл
Формат: Matroska
Качество: BDRip-AVC
Видео: 720x302 at 23.976 fps, x264@L4.1, ~618 kbps
Аудио: AAC, 2 ch, ~64 kbps - | Русский |
► Без Рекламы!

***Релиз от: -=DoMiNo=-


[+] M/I
General
Unique ID                   : 61779684810408342486641690595478809470 (0x2E7A55A157468D59E60DB52938D12B7E)
Complete name               : H:The.Last.Duel.2021.MVO.BDRip.x264.mkv
Format                      : Matroska
Format version              : Version 4
File size                   : 745 MiB
Duration                    : 2 h 32 min
Overall bit rate            : 682 kb/s
Encoded date                : UTC 2021-12-05 14:31:50
Writing application         : mkvmerge v63.0.0 ('Everything') 64-bit
Writing library             : libebml v1.4.2 + libmatroska v1.6.4
Cover                       : Yes
Attachments                 : cover.jpg / cover 2.jpg

Video
ID                          : 1
Format                      : AVC
Format/Info                 : Advanced Video Codec
Format profile              : High@L4.1
Format settings             : CABAC / 16 Ref Frames
Format settings, CABAC      : Yes
Format settings, Reference  : 16 frames
Codec ID                    : V_MPEG4/ISO/AVC
Duration                    : 2 h 32 min
Bit rate                    : 618 kb/s
Width                       : 720 pixels
Height                      : 302 pixels
Display aspect ratio        : 2.40:1
Frame rate mode             : Constant
Frame rate                  : 23.976 (24000/1001) FPS
Color space                 : YUV
Chroma subsampling          : 4:2:0
Bit depth                   : 8 bits
Scan type                   : Progressive
Bits/(Pixel*Frame)          : 0.119
Stream size                 : 674 MiB (91%)
Title                       : -=DoMiNo=-
Writing library             : x264 core 164 r3075+55M 97d28bb t_mod_New [(8 & 10)-bit@all X86_64]
Encoding settings           : cabac=1 / ref=16 / deblock=1:-2:-1 / analyse=0x3:0x133 / me=umh / subme=10 / psy=1 / fade_compensate=0.00 / psy_rd=1.03:0.05 / mixed_ref=1 / me_range=32 / chroma_me=1 / trellis=2 / 8x8dct=1 / cqm=0 / deadzone=21,11 / fast_pskip=0 / chroma_qp_offset=-3 / threads=9 / lookahead_threads=2 / sliced_threads=0 / nr=0 / decimate=0 / interlaced=0 / bluray_compat=0 / constrained_intra=0 / fgo=0 / bframes=14 / b_pyramid=2 / b_adapt=2 / b_bias=0 / direct=3 / weightb=1 / open_gop=0 / weightp=2 / keyint=250 / keyint_min=23 / scenecut=40 / intra_refresh=0 / rc_lookahead=60 / rc=2pass / mbtree=0 / bitrate=618 / ratetol=1.0 / qcomp=0.75 / qpmin=0:0:0 / qpmax=69:69:69 / qpstep=4 / cplxblur=20.0 / qblur=0.5 / vbv_maxrate=50000 / vbv_bufsize=62500 / nal_hrd=none / filler=0 / ip_ratio=1.40 / pb_ratio=1.30 / aq=3:0.80 / aq-sensitivity=10.00 / aq-factor=1.00:1.00:1.00 / aq2=0 / aq3=0
Language                    : English
Default                     : Yes
Forced                      : No

Audio
ID                          : 2
Format                      : AAC LC SBR
Format/Info                 : Advanced Audio Codec Low Complexity with Spectral Band Replication
Commercial name             : HE-AAC
Format settings             : Explicit
Codec ID                    : A_AAC-2
Duration                    : 2 h 32 min
Bit rate                    : 62.7 kb/s
Channel(s)                  : 2 channels
Channel layout              : L R
Sampling rate               : 48.0 kHz
Frame rate                  : 23.438 FPS (2048 SPF)
Compression mode            : Lossy
Stream size                 : 68.5 MiB (9%)
Title                       : MVO_[Jaskier]
Language                    : Russian
Default                     : Yes
Forced                      : Yes

Text #1
ID                          : 3
Format                      : UTF-8
Codec ID                    : S_TEXT/UTF8
Codec ID/Info               : UTF-8 Plain Text
Duration                    : 2 h 22 min
Bit rate                    : 1 b/s
Count of elements           : 35
Stream size                 : 1.62 KiB (0%)
Title                       : Forced
Language                    : Russian
Default                     : Yes
Forced                      : No

Text #2
ID                          : 4
Format                      : UTF-8
Codec ID                    : S_TEXT/UTF8
Codec ID/Info               : UTF-8 Plain Text
Duration                    : 2 h 23 min
Bit rate                    : 68 b/s
Count of elements           : 1615
Stream size                 : 71.8 KiB (0%)
Language                    : Russian
Default                     : No
Forced                      : No

Menu
00:00:00.000                : :Chapter 01
00:05:02.051                : :Chapter 02
00:09:42.456                : :Chapter 03
00:17:43.645                : :Chapter 04
00:25:59.933                : :Chapter 05
00:33:25.294                : :Chapter 06
00:38:51.370                : :Chapter 07
00:42:34.593                : :Chapter 08
00:54:23.510                : :Chapter 09
01:05:52.490                : :Chapter 10
01:17:07.456                : :Chapter 11
01:25:24.702                : :Chapter 12
01:32:50.273                : :Chapter 13
01:40:17.177                : :Chapter 14
01:52:06.720                : :Chapter 15
02:05:28.521                : :Chapter 16
02:22:25.537                : :Chapter 17



Скриншоты:
[+] Всего файлов в раздаче - 1:

Похожие раздачи по запросу - последняя:
2022-01-12 U Последняя дуэль / The Last Duel (2021) HDRip-AVC от ExKinoRay | КиноПоиск HD 1.08 GB ↑ 47 ↓ 16
2022-01-11 U Последняя дуэль / The Last Duel (2021) BDRip-HEVC 1080p от HEVC-CLUB | D 1К3.98 GB ↑ 91 ↓ 72
2022-01-10 U Последняя дуэль / The Last Duel (2021) BDRip от Twister & ExKinoRay | D 1.46 GB ↑ 81 ↓ 40
2022-01-10 U Последняя дуэль / The Last Duel (2021) BDRip 720p от Scarabey | D | Невафильм 2К8.48 GB ↑ 46 ↓ 31
2022-01-10 U Последняя дуэль / The Last Duel (2021) BDRip 1080p | D, P, A 2К14.52 GB ↑ 38 ↓ 75
2022-01-10 U Последняя дуэль / The Last Duel (2021) BDRip от Twister & ExKinoRay | D 2.18 GB ↑ 47 ↓ 16
2022-01-10 U Последняя дуэль / The Last Duel (2021) BDRip | D 2.91 GB ↑ 28 ↓ 22

Отзывы
Зарегистрируйтесь чтобы добавить комментарий.
Торрент клиент
byTorrent - программа для загрузки торрент-файлов.

Скачать byTorrent


Поддержи torrent.by
российских рублей
(300 российских рублей это 4$)

Обратная связь rss
End ©