↑↓torrent.by
Поиск
Логин: Регистрация
Пароль: Восстановить пароль

Дюна / Dune: Part One (2021) UHD BDRemux 2160p от селезень | 4K | HDR | Dolby Vision Profile 8 | D

Скачать dyuna-dune-part-one-2021-uhd-bdremux-2160p-ot-selezen-4k-hdr-dolby-vision-profile-8-d.torrent
U Магнитная ссылка Размер: 69.90 GB Раздают: 41 Качают: 15 Добавлен: 2021-12-06 07:34:07
Дюна / Dune: Part One (2021) UHD BDRemux 2160p от селезень | 4K | HDR | Dolby Vision Profile 8 | D

Название: Дюна
Оригинальное название: Dune: Part One
Год выхода: 2021
Жанр: Фантастика, боевик, драма, приключения
Режиссер: Дени Вильнёв
В ролях: Тимоти Шаламе, Зендая, Ребекка Фергюсон, Оскар Айзек, Джош Бролин, Джейсон Момоа, Дэйв Батиста, Стеллан Скарсгард, Хавьер Бардем, Шарлотта Рэмплинг, Чан Чэнь, Давид Дастмалчян, Стивен Хендерсон, Шэрон Дункан-Брюстер, Бабс Олусанмокун, Майкл Нардон, Оливер Райан, Глория Обианё

О фильме: События ленты разворачиваются в далеком будущем на планете Арракис, единственном источнике главного ресурса вселенной, необходимого для космических перелетов, — специи. По приказу императора глава дома Атрейдесов назначается правителем Арракиса. Его сын, молодой Пол Атрейдес, видит вещие сны и обладает удивительным даром. В его руках оказывается будущее всей планеты и его народа.

Страна: США, Канада, Венгрия
Студия: Legendary Pictures, Villeneuve Films, Warner Bros.
Продолжительность: 02:35:26
Перевод: Дублированный | Пифагор

Качество: BDRemux 2160p
Видео: 3840x2160 at 23.976 fps, MPEG-H HEVC HDR, Dolby Vision Profile 8 Video, ~ 59700 kbps avg
Аудио #01: 48 kHz, E-AC3, 5.1, 448 Kbps | Дублированный | Пифагор | RUS |
Аудио #02: 48 kHz, AC3, 5.1, 448 Kbps | Дублированный | Пифагор | RUS |
Аудио #03: 48 kHz, TrueHD, 7.1, 3243 Kbps | Оригинал | ENG |
Аудио #04: 48 kHz, AC3, 5.1, 448 Kbps | Оригинал | ENG |
Субтитры: Русские (Forced, full), английские

Релиз: Присоединяйся к:


[+] MI
General
Unique ID                                : 307109110037089867120758940720966396324 (0xE70B1028BA472D10EE2EFB6BFE87E9A4)
Complete name                            : E:VideoDune.2021.BDREMUX.2160p.HDR.DVP8.seleZen.mkv
Format                                   : Matroska
Format version                           : Version 4
File size                                : 69.9 GiB
Duration                                 : 2 h 35 min
Overall bit rate mode                    : Variable
Overall bit rate                         : 64.4 Mb/s
Movie name                               : Dune Part One 2021 from seleZen
Encoded date                             : UTC 2021-12-05 12:07:01
Writing application                      : mkvmerge v59.0.0 ('Shining Star') 64-bit
Writing library                          : libebml v1.4.2 + libmatroska v1.6.4

Video
ID                                       : 1
ID in the original source medium         : 4117 (0x1015)
Format                                   : HEVC
Format/Info                              : High Efficiency Video Coding
Format profile                           : Main 10@L5.1@High
HDR format                               : Dolby Vision, Version 1.0, dvhe.08.06, BL+RPU, Blu-ray compatible / SMPTE ST 2086, HDR10 compatible
Codec ID                                 : V_MPEGH/ISO/HEVC
Duration                                 : 2 h 35 min
Bit rate                                 : 59.7 Mb/s
Width                                    : 3 840 pixels
Height                                   : 2 160 pixels
Display aspect ratio                     : 16:9
Frame rate mode                          : Constant
Frame rate                               : 23.976 (24000/1001) FPS
Color space                              : YUV
Chroma subsampling                       : 4:2:0 (Type 2)
Bit depth                                : 10 bits
Bits/(Pixel*Frame)                       : 0.300
Stream size                              : 64.8 GiB (93%)
Language                                 : English
Default                                  : No
Forced                                   : No
Color range                              : Limited
Color primaries                          : BT.2020
Transfer characteristics                 : PQ
Matrix coefficients                      : BT.2020 non-constant
Mastering display color primaries        : Display P3
Mastering display luminance              : min: 0.0050 cd/m2, max: 4000 cd/m2
Maximum Content Light Level              : 787 cd/m2
Maximum Frame-Average Light Level        : 239 cd/m2
Original source medium                   : Blu-ray

Audio #1
ID                                       : 2
Format                                   : E-AC-3
Format/Info                              : Enhanced AC-3
Commercial name                          : Dolby Digital Plus
Codec ID                                 : A_EAC3
Duration                                 : 2 h 35 min
Bit rate mode                            : Constant
Bit rate                                 : 448 kb/s
Channel(s)                               : 6 channels
Channel layout                           : L R C LFE Ls Rs
Sampling rate                            : 48.0 kHz
Frame rate                               : 31.250 FPS (1536 SPF)
Compression mode                         : Lossy
Stream size                              : 498 MiB (1%)
Title                                    : Dub
Language                                 : Russian
Service kind                             : Complete Main
Default                                  : Yes
Forced                                   : Yes

Audio #2
ID                                       : 3
Format                                   : AC-3
Format/Info                              : Audio Coding 3
Commercial name                          : Dolby Digital
Codec ID                                 : A_AC3
Duration                                 : 2 h 35 min
Bit rate mode                            : Constant
Bit rate                                 : 448 kb/s
Channel(s)                               : 6 channels
Channel layout                           : L R C LFE Ls Rs
Sampling rate                            : 48.0 kHz
Frame rate                               : 31.250 FPS (1536 SPF)
Compression mode                         : Lossy
Stream size                              : 498 MiB (1%)
Title                                    : Dub
Language                                 : Russian
Service kind                             : Complete Main
Default                                  : No
Forced                                   : No

Audio #3
ID                                       : 4
Format                                   : MLP FBA 16-ch
Format/Info                              : Meridian Lossless Packing FBA with 16-channel presentation
Commercial name                          : Dolby TrueHD with Dolby Atmos
Codec ID                                 : A_TRUEHD
Duration                                 : 2 h 35 min
Bit rate mode                            : Variable
Bit rate                                 : 3 243 kb/s
Maximum bit rate                         : 5 472 kb/s
Channel(s)                               : 8 channels
Channel layout                           : L R C LFE Ls Rs Lb Rb
Sampling rate                            : 48.0 kHz
Frame rate                               : 1 200.000 FPS (40 SPF)
Compression mode                         : Lossless
Stream size                              : 3.52 GiB (5%)
Title                                    : Original
Language                                 : English
Default                                  : No
Forced                                   : No
Number of dynamic objects                : 11
Bed channel count                        : 1 channel
Bed channel configuration                : LFE

Audio #4
ID                                       : 5
Format                                   : AC-3
Format/Info                              : Audio Coding 3
Commercial name                          : Dolby Digital
Format settings                          : Dolby Surround EX
Codec ID                                 : A_AC3
Duration                                 : 2 h 35 min
Bit rate mode                            : Constant
Bit rate                                 : 448 kb/s
Channel(s)                               : 6 channels
Channel layout                           : L R C LFE Ls Rs
Sampling rate                            : 48.0 kHz
Frame rate                               : 31.250 FPS (1536 SPF)
Compression mode                         : Lossy
Stream size                              : 498 MiB (1%)
Language                                 : English
Service kind                             : Complete Main
Default                                  : No
Forced                                   : No

Text #1
ID                                       : 6
Format                                   : UTF-8
Codec ID                                 : S_TEXT/UTF8
Codec ID/Info                            : UTF-8 Plain Text
Duration                                 : 2 h 27 min
Bit rate                                 : 2 b/s
Count of elements                        : 51
Stream size                              : 2.45 KiB (0%)
Title                                    : Forced
Language                                 : Russian
Default                                  : Yes
Forced                                   : Yes

Text #2
ID                                       : 7
Format                                   : UTF-8
Codec ID                                 : S_TEXT/UTF8
Codec ID/Info                            : UTF-8 Plain Text
Duration                                 : 2 h 28 min
Bit rate                                 : 53 b/s
Count of elements                        : 1254
Stream size                              : 58.0 KiB (0%)
Title                                    : Full
Language                                 : Russian
Default                                  : No
Forced                                   : No

Text #3
ID                                       : 8
Format                                   : UTF-8
Codec ID                                 : S_TEXT/UTF8
Codec ID/Info                            : UTF-8 Plain Text
Duration                                 : 2 h 25 min
Bit rate                                 : 31 b/s
Count of elements                        : 1353
Stream size                              : 34.1 KiB (0%)
Title                                    : Full
Language                                 : English
Default                                  : No
Forced                                   : No

Text #4
ID                                       : 9
Format                                   : UTF-8
Codec ID                                 : S_TEXT/UTF8
Codec ID/Info                            : UTF-8 Plain Text
Duration                                 : 2 h 26 min
Bit rate                                 : 41 b/s
Count of elements                        : 1724
Stream size                              : 44.3 KiB (0%)
Title                                    : SDH
Language                                 : English
Default                                  : No
Forced                                   : No

Menu
00:00:00.000                             : Глава 01
00:03:16.154                             : Глава 02
00:12:54.816                             : Глава 03
00:22:00.736                             : Глава 04
00:29:16.922                             : Глава 05
00:39:10.932                             : Глава 06
00:47:19.795                             : Глава 07
00:56:53.493                             : Глава 08
01:06:50.381                             : Глава 09
01:16:44.892                             : Глава 10
01:26:00.655                             : Глава 11
01:36:00.380                             : Глава 12
01:45:09.470                             : Глава 13
01:53:50.323                             : Глава 14
02:03:38.536                             : Глава 15
02:12:13.342                             : Глава 16
02:20:45.771                             : Глава 17
02:27:27.797                             : Глава 18



Скриншоты:
[+] Всего файлов в раздаче - 1:

Похожие раздачи по запросу - дюна:
2022-01-20 U Дюна / Dune: Part One (2021) BDRip 1080p от HELLYWOOD | D, P, L, L2, A 18.74 GB ↑ 34 ↓ 17
2021-12-30 U Дюна / Dune: Part One (2021) UHD BDRip 2160p HDR HEVC 10 bit от Mr.Rippley | iTunes 5.28 GB ↑ 37 ↓ 24
2021-12-26 U Дюна / Dune: Part One (2021) UHD BDRip-HEVC 1080p от RIPS CLUB | HDR | D 8.74 GB ↑ 52 ↓ 54
2021-12-21 U Дюна / Dune: Part One (2021) BDRip-AVC от HELLYWOOD | D 1.46 GB ↑ 62 ↓ 29
2021-12-06 U Дюна / Dune: Part One (2021) BDRip-AVC от HELLYWOOD | D 2.91 GB ↑ 86 ↓ 62
2021-12-05 U Дюна / Dune: Part One (2021) BDRip от Twister & ExKinoRay | D 1К1.46 GB ↑ 56 ↓ 28
2021-12-05 U Дюна / Dune: Part One (2021) UHD BDRemux 2160p от селезень | 4K | HDR | Dolby Vision | D 74.14 GB ↑ 65 ↓ 81

Отзывы
Зарегистрируйтесь чтобы добавить комментарий.
Торрент клиент
byTorrent - программа для загрузки торрент-файлов.

Скачать byTorrent


Поддержи torrent.by
российских рублей
(300 российских рублей это 4$)

Обратная связь rss
End ©