↑↓torrent.by
Поиск
Логин: Регистрация
Пароль: Восстановить пароль

Тихая ночь / Silent Night (2021) WEB-DL 1080p от New-Team | Jaskier

Скачать tihaya-noch-silent-night-2021-web-dl-1080p-ot-new-team-jaskier.torrent
U Магнитная ссылка Размер: 4.78 GB Раздают: 280 Качают: 75 Добавлен: 2021-12-06 07:35:27
Тихая ночь / Silent Night (2021) WEB-DL 1080p от New-Team | Jaskier

Тихая ночь / Silent Night  

Год выпуска: 2021
Выпущено: Великобритания / Marv Films, Maven Screen Media
Жанр: комедия, драма, ужасы
Режиссер: Камилль Гриффин / Camille Griffin
В ролях: Аннабелль Уоллис, Лили-Роуз Депп, Кира Найтли, Мэттью Гуд, Кирби Хауэлл-Баптист, Люси Панч, Роман Гриффин Дэвис, Труди Стайлер, Сопе Дирису, Холли Аирд

О фильме: Супруги Нелл и Саймон и трое их сыновей готовы приветствовать друзей на идеальном рождественском ужине в своем красивом загородном доме. Идеально всё, за исключением одного: скоро миру придет конец, и все умрут.

Продолжительность: 01:30:44
Перевод: Профессиональный, многоголосый закадровый (Jaskier / KinoPub)
Субтитры: Английские

Раздача от:

Автор релиза: JNS82.
Качество: WEB-DL 1080p | Silent.Night.Und.Morgen.Sind.Wir.Tot.2021.1080p.WEB-DL.DD5.1.H.264-EVO
Видео: MPEG-4 AVC, 6725 Кбит/с, 1918x802
Аудио #1: AC3, 6 ch, 448 Кбит/с | RUS |
Аудио #2: AC3, 6 ch, 384 Кбит/с | ENG |


[+] M.info
Общее
Уникальный идентификатор                 : 170579167458141499722992466643936428972 (0x80545A473EFAF871A962FA6D0A2943AC)
Полное имя                               : E:TorrentsSilent.Night.2021.1080p_от New-Team.mkv
Формат                                   : Matroska
Версия формата                           : Version 4
Размер файла                             : 4,78 Гбайт
Продолжительность                        : 1 ч. 30 м.
Общий поток                              : 7 540 Кбит/сек
Название фильма                          : Silent.Night.2021.1080p_от New-Team
Дата кодирования                         : UTC 2021-12-05 13:50:48
Программа кодирования                    : mkvmerge v59.0.0 ('Shining Star') 64-bit
Библиотека кодирования                   : libebml v1.4.2 + libmatroska v1.6.4

Видео
Идентификатор                            : 1
Формат                                   : AVC
Формат/Информация                        : Advanced Video Codec
Профиль формата                          : High@L4
Настройки формата                        : CABAC / 5 Ref Frames
Параметр CABAC формата                   : Да
Параметр RefFrames формата               : 5 кадров
Идентификатор кодека                     : V_MPEG4/ISO/AVC
Продолжительность                        : 1 ч. 30 м.
Битрейт                                  : 6 725 Кбит/сек
Ширина                                   : 1 918 пикселей
Высота                                   : 802 пикселя
Соотношение сторон                       : 2,40:1
Режим частоты кадров                     : Постоянный
Частота кадров                           : 23,976 (24000/1001) кадра/сек
Цветовое пространство                    : YUV
Субдискретизация насыщенности            : 4:2:0
Битовая глубина                          : 8 бит
Тип развёртки                            : Прогрессивная
Бит/(Пиксели*Кадры)                      : 0.182
Размер потока                            : 4,25 Гбайт (89%)
Default                                  : Да
Forced                                   : Нет
Цветовой диапазон                        : Limited
Основные цвета                           : BT.709
Характеристики трансфера                 : BT.709
Коэффициенты матрицы                     : BT.709

Аудио #1
Идентификатор                            : 2
Формат                                   : AC-3
Формат/Информация                        : Audio Coding 3
Коммерческое название                    : Dolby Digital
Идентификатор кодека                     : A_AC3
Продолжительность                        : 1 ч. 30 м.
Вид битрейта                             : Постоянный
Битрейт                                  : 448 Кбит/сек
Каналы                                   : 6 каналов
Channel layout                           : L R C LFE Ls Rs
Частота                                  : 48,0 КГц
Частота кадров                           : 31,250 кадров/сек (1536 SPF)
Метод сжатия                             : С потерями
Размер потока                            : 291 Мбайт (6%)
Заголовок                                : [MVO] Jaskier
Язык                                     : Russian
Service kind                             : Complete Main
Default                                  : Да
Forced                                   : Нет

Аудио #2
Идентификатор                            : 3
Формат                                   : AC-3
Формат/Информация                        : Audio Coding 3
Коммерческое название                    : Dolby Digital
Идентификатор кодека                     : A_AC3
Продолжительность                        : 1 ч. 30 м.
Вид битрейта                             : Постоянный
Битрейт                                  : 384 Кбит/сек
Каналы                                   : 6 каналов
Channel layout                           : L R C LFE Ls Rs
Частота                                  : 48,0 КГц
Частота кадров                           : 31,250 кадров/сек (1536 SPF)
Метод сжатия                             : С потерями
Размер потока                            : 249 Мбайт (5%)
Заголовок                                : English
Язык                                     : English
Service kind                             : Complete Main
Default                                  : Нет
Forced                                   : Нет

Текст
Идентификатор                            : 4
Формат                                   : UTF-8
Идентификатор кодека                     : S_TEXT/UTF8
Идентификатор кодека/Информация          : UTF-8 Plain Text
Продолжительность                        : 1 ч. 30 м.
Битрейт                                  : 61 бит/сек
Count of elements                        : 1565
Размер потока                            : 40,3 Кбайт (0%)
Язык                                     : English
Default                                  : Нет
Forced                                   : Нет




Скриншоты:
[+] Всего файлов в раздаче - 1:

Похожие раздачи по запросу - тихая:
2021-12-10 U Тихая ночь / Silent Night (2021) BDRip от MegaPeer | Jaskier 1.46 GB ↑ 162 ↓ 51

Отзывы
Зарегистрируйтесь чтобы добавить комментарий.
Торрент клиент
byTorrent - программа для загрузки торрент-файлов.

Скачать byTorrent


Поддержи torrent.by
российских рублей
(300 российских рублей это 4$)

Обратная связь rss
End ©