↑↓torrent.by
Поиск
Логин: Регистрация
Пароль: Восстановить пароль

Talk [02х01-06 из 12] (2021) WEBRip 720p

Скачать talk-02h01-06-iz-12-2021-webrip-720p.torrent
U Магнитная ссылка Размер: 5.96 GB Раздают: 58 Качают: 84 Добавлен: 2021-12-06 17:22:48
Talk [02х01-06 из 12] (2021) WEBRip 720p

Название: Talk
Год выхода: 2021
Жанр: ТВ-шоу, юмор
Режиссёр: Айсултан Сеитов
Ведущие: Нурлан Сабуров, Тимур Каргинов, Азамат Мусагалиев

О фильме:
Четыре комика разговаривают по душам на серьёзные темы. Шоу Talk изначально не задумывалось как юмористическое, несмотря на состав из четырёх звёздных комиков. В итоге Руслан Белый, Нурлан Сабуров, Тимур Каргинов и Азамат Мусагалиев раскрылись именно в качестве интересных спикеров, которые готовы обсудить любую тему: от школьного буллинга и особенностей советского воспитания до уместности использования мата. Для миллионов зрителей парни превратились в приятных кухонных собеседников, рассуждения которых всегда интересно послушать, независимо от того, о чём они говорят: бессмысленности современной армии, общественном давлении в социальных сетях или сложностях и прелестях семейной жизни. И не только для зрителей, но и для слушателей, ведь шоу Talk, изначально задуманное как телевизионная передача, получило вторую жизнь в формате подкаста, уверенно ворвавшись в чарты лучших по итогам года.

Страна: Россия
Студия: Производство ООО «Комеди Клаб продакшн»
Продолжительность: 6 х ~ 00:45:00
Язык: Русский

Премьера: 26 октября 2021 года (ТНТ)
Примечание: Без рекламы

Файл
Формат: MKV
Качество: WEBRip 720p
Видео: MPEG-4 AVC, ~ 3000 Кбит/с, 1280x720
Звук: AC3, 2 ch, 192 Кбит/с
Субтитры: Отсутствуют


[+] MI
Общее
Уникальный идентификатор                 : 27045058191395958865365114007362242090 (0x1458B05162CB3023302D535E0DFC862A)
Полное имя                               : D:Talk.S02.2021.WEB-DL.720pTalk.S02.E01.2021.WEB-DL.720p.mkv
Формат                                   : Matroska
Версия формата                           : Version 4
Размер файла                             : 1 005 Мбайт
Продолжительность                        : 44 м. 6 с.
Режим общего битрейта                    : Переменный
Общий поток                              : 3 185 Кбит/сек
Название фильма                          : Talk.S02.E01.2021.WEB-DL.720p
Дата кодирования                         : UTC 2021-10-26 20:03:35
Программа кодирования                    : mkvmerge v62.0.0 ('Apollo') 64-bit
Библиотека кодирования                   : libebml v1.4.2 + libmatroska v1.6.4
Attachments                              : poster.jpg

Видео
Идентификатор                            : 1
Формат                                   : AVC
Формат/Информация                        : Advanced Video Codec
Профиль формата                          : High@L3.1
Настройки формата                        : CABAC / 1 Ref Frames
Параметр CABAC формата                   : Да
Параметр RefFrames формата               : 1 кадр
Параметр GOP формата                     : M=1, N=50
Идентификатор кодека                     : V_MPEG4/ISO/AVC
Продолжительность                        : 44 м. 6 с.
Вид битрейта                             : Переменный
Битрейт                                  : 3 000 Кбит/сек
Ширина                                   : 1 280 пикселей
Высота                                   : 720 пикселей
Соотношение сторон                       : 16:9
Режим частоты кадров                     : Постоянный
Частота кадров                           : 25,000 кадров/сек
Цветовое пространство                    : YUV
Субдискретизация насыщенности            : 4:2:0
Битовая глубина                          : 8 бит
Тип развёртки                            : Прогрессивная
Бит/(Пиксели*Кадры)                      : 0.130
Размер потока                            : 944 Мбайт (94%)
Default                                  : Да
Forced                                   : Нет

Аудио
Идентификатор                            : 2
Формат                                   : AC-3
Формат/Информация                        : Audio Coding 3
Коммерческое название                    : Dolby Digital
Идентификатор кодека                     : A_AC3
Продолжительность                        : 44 м. 6 с.
Вид битрейта                             : Постоянный
Битрейт                                  : 192 Кбит/сек
Каналы                                   : 2 канала
Channel layout                           : L R
Частота                                  : 48,0 КГц
Частота кадров                           : 31,250 кадров/сек (1536 SPF)
Метод сжатия                             : С потерями
Размер потока                            : 60,6 Мбайт (6%)
Service kind                             : Complete Main
Default                                  : Да
Forced                                   : Нет



Скриншоты:
[+] Всего файлов в раздаче - 6:

Похожие раздачи по запросу - talk:
2022-01-24 U Talk [02х01-11 из 12] (2021) WEBRip 720p 3К10.94 GB ↑ 34 ↓ 132
2022-01-17 U Talk [02х01-10 из 12] (2021) WEBRip 720p 9.95 GB ↑ 39 ↓ 25
2021-12-21 U Talk [02х01-08 из 12] (2021) WEBRip 720p 7.96 GB ↑ 38 ↓ 73
2021-12-14 U Пусть говорят / Let Them All Talk (2020) WEB-DLRip от MegaPeer | D 1.46 GB ↑ 89 ↓ 17
2021-12-14 U Пусть говорят / Let Them All Talk (2020) WEB-DL 1080p | D, P 7.40 GB ↑ 29 ↓ 15
2021-12-13 U Talk [02х01-07 из 12] (2021) WEBRip 720p 1К6.95 GB ↑ 29 ↓ 101
2021-10-27 U Talk [02х01 из 12] (2021) WEBRip 720p 1,004.96 MB ↑ 68 ↓ 16

Отзывы
Зарегистрируйтесь чтобы добавить комментарий.
Торрент клиент
byTorrent - программа для загрузки торрент-файлов.

Скачать byTorrent


Поддержи torrent.by
российских рублей
(300 российских рублей это 4$)

Обратная связь rss
End ©