↑↓torrent.by
Поиск
Логин: Регистрация
Пароль: Восстановить пароль

Клаустрофобы 2: Лига выживших / Escape Room: Tournament of Champions (2021) BDRip 720p от селезень | Театральная версия | Лицензия

Скачать klaustrofoby-2-liga-vyzhivshih-escape-room-tournament-of-champions-2021-bdrip-720p-ot-selezen-teatralnaya-versiya-licenziya.torrent
U Магнитная ссылка Размер: 4.65 GB Раздают: 37 Качают: 6 Добавлен: 2021-12-07 09:35:53
Клаустрофобы 2: Лига выживших / Escape Room: Tournament of Champions (2021) BDRip 720p от селезень | Театральная версия | Лицензия

Название: Клаустрофобы 2: Лига выживших
Оригинальное название: Escape Room: Tournament of Champions
Год выхода: 2021
Жанр: Ужасы, боевик
Режиссер: Адам Робител
В ролях: Тейлор Расселл, Логан Миллер, Томас Кокерел, Холлэнд Роден, Индия Мур, Карлито Оливеро, Джей Ирвинг, Джеймс Батлер, Джеймс Фрейн

О фильме: Шестеро незнакомцев, которым удалось выжить в смертельно опасных квестах, вновь оказываются в игре не по своей воле. На этот раз их ждут еще более жуткие испытания: задания стали сложнее и безжалостнее, и шансы на выживание стремятся к нулю. «Клаустрофобы 2: Лига выживших» — новая глава истории об ужасах, которые творятся внутри смертельного квеста на выживание.

Страна: США, ЮАР
Студия: Columbia Pictures Corporation, Moonlighting Films South Africa, Original Film, Shaken Not Stirred
Продолжительность: 01:28:03
Перевод: Дублированный | Лицензия (Blu-Ray EUR)

Качество: BDRip 720p
Видео: MPEG-4 AVC, 1280x536, 6273 Kbit/s, 23.976 fps
Аудио #01: 48 kHz, AC3, 5.1, 640 Kbps | Лицензия (Blu-Ray EUR) | RUS |
Аудио #02: 48 kHz, AC3, 5.1, 640 Kbps | Оригинал | ENG |
Субтитры: Русские (Forced, full), английские

Релиз: Присоединяйся к:


[+] MI
General
Unique ID                                : 170819543318177197548558495381169644444 (0x8082A5B924864285F4C77FDDF780239C)
Complete name                            : E:VideoEscape.Room.2021.Theatrical.Cut.BDRip.720p.seleZen.mkv
Format                                   : Matroska
Format version                           : Version 4
File size                                : 4.65 GiB
Duration                                 : 1 h 28 min
Overall bit rate                         : 7 556 kb/s
Movie name                               : Escape Room Tournament of Champions 2021 Theatrical.Cut from seleZen
Encoded date                             : UTC 2021-12-06 19:19:47
Writing application                      : mkvmerge v59.0.0 ('Shining Star') 64-bit
Writing library                          : libebml v1.4.2 + libmatroska v1.6.4
Cover                                    : Yes
Attachments                              : cover.jpg

Video
ID                                       : 1
Format                                   : AVC
Format/Info                              : Advanced Video Codec
Format profile                           : High@L4.1
Format settings                          : CABAC / 12 Ref Frames
Format settings, CABAC                   : Yes
Format settings, Reference frames        : 12 frames
Codec ID                                 : V_MPEG4/ISO/AVC
Duration                                 : 1 h 28 min
Bit rate                                 : 6 273 kb/s
Width                                    : 1 280 pixels
Height                                   : 536 pixels
Display aspect ratio                     : 2.40:1
Frame rate mode                          : Constant
Frame rate                               : 23.976 (24000/1001) FPS
Color space                              : YUV
Chroma subsampling                       : 4:2:0
Bit depth                                : 8 bits
Scan type                                : Progressive
Bits/(Pixel*Frame)                       : 0.381
Stream size                              : 3.86 GiB (83%)
Title                                    : BdC
Writing library                          : x264 core 164 r3065 ae03d92
Encoding settings                        : cabac=1 / ref=12 / deblock=1:-3:-3 / analyse=0x3:0x133 / me=umh / subme=10 / psy=1 / psy_rd=1.00:0.00 / mixed_ref=1 / me_range=32 / chroma_me=1 / trellis=2 / 8x8dct=1 / cqm=0 / deadzone=21,11 / fast_pskip=0 / chroma_qp_offset=-2 / threads=12 / lookahead_threads=2 / sliced_threads=0 / nr=0 / decimate=0 / interlaced=0 / bluray_compat=0 / constrained_intra=0 / bframes=8 / b_pyramid=2 / b_adapt=2 / b_bias=0 / direct=3 / weightb=1 / open_gop=0 / weightp=2 / keyint=250 / keyint_min=23 / scenecut=40 / intra_refresh=0 / rc_lookahead=60 / rc=2pass / mbtree=0 / bitrate=6273 / ratetol=1.0 / qcomp=0.60 / qpmin=0 / qpmax=69 / qpstep=4 / cplxblur=20.0 / qblur=0.5 / vbv_maxrate=62500 / vbv_bufsize=78125 / nal_hrd=none / filler=0 / ip_ratio=1.40 / pb_ratio=1.30 / aq=3:0.80
Language                                 : English
Default                                  : Yes
Forced                                   : No
Color range                              : Limited
Color primaries                          : BT.709
Transfer characteristics                 : BT.709
Matrix coefficients                      : BT.709

Audio #1
ID                                       : 2
Format                                   : AC-3
Format/Info                              : Audio Coding 3
Commercial name                          : Dolby Digital
Codec ID                                 : A_AC3
Duration                                 : 1 h 28 min
Bit rate mode                            : Constant
Bit rate                                 : 640 kb/s
Channel(s)                               : 6 channels
Channel layout                           : L R C LFE Ls Rs
Sampling rate                            : 48.0 kHz
Frame rate                               : 31.250 FPS (1536 SPF)
Compression mode                         : Lossy
Stream size                              : 403 MiB (8%)
Title                                    : Dub [License Blu-Ray EUR]
Language                                 : Russian
Service kind                             : Complete Main
Default                                  : Yes
Forced                                   : Yes

Audio #2
ID                                       : 3
Format                                   : AC-3
Format/Info                              : Audio Coding 3
Commercial name                          : Dolby Digital
Codec ID                                 : A_AC3
Duration                                 : 1 h 28 min
Bit rate mode                            : Constant
Bit rate                                 : 640 kb/s
Channel(s)                               : 6 channels
Channel layout                           : L R C LFE Ls Rs
Sampling rate                            : 48.0 kHz
Frame rate                               : 31.250 FPS (1536 SPF)
Compression mode                         : Lossy
Stream size                              : 403 MiB (8%)
Title                                    : Original
Language                                 : English
Service kind                             : Complete Main
Default                                  : No
Forced                                   : No

Text #1
ID                                       : 4
Format                                   : UTF-8
Codec ID                                 : S_TEXT/UTF8
Codec ID/Info                            : UTF-8 Plain Text
Duration                                 : 1 h 18 min
Bit rate                                 : 1 b/s
Count of elements                        : 30
Stream size                              : 763 Bytes (0%)
Title                                    : Forced
Language                                 : Russian
Default                                  : Yes
Forced                                   : Yes

Text #2
ID                                       : 5
Format                                   : UTF-8
Codec ID                                 : S_TEXT/UTF8
Codec ID/Info                            : UTF-8 Plain Text
Duration                                 : 1 h 27 min
Bit rate                                 : 89 b/s
Count of elements                        : 1304
Stream size                              : 57.1 KiB (0%)
Title                                    : Full [Blu-Ray EUR]
Language                                 : Russian
Default                                  : No
Forced                                   : No

Text #3
ID                                       : 6
Format                                   : UTF-8
Codec ID                                 : S_TEXT/UTF8
Codec ID/Info                            : UTF-8 Plain Text
Duration                                 : 1 h 20 min
Bit rate                                 : 70 b/s
Count of elements                        : 1296
Stream size                              : 41.8 KiB (0%)
Title                                    : Full
Language                                 : English
Default                                  : No
Forced                                   : No

Text #4
ID                                       : 7
Format                                   : UTF-8
Codec ID                                 : S_TEXT/UTF8
Codec ID/Info                            : UTF-8 Plain Text
Duration                                 : 1 h 21 min
Bit rate                                 : 80 b/s
Count of elements                        : 1457
Stream size                              : 47.6 KiB (0%)
Title                                    : SDH
Language                                 : Russian
Default                                  : No
Forced                                   : No

Menu
00:00:00.000                             : Chapter 01
00:09:22.436                             : Chapter 02
00:15:43.233                             : Chapter 03
00:20:58.548                             : Chapter 04
00:23:49.553                             : Chapter 05
00:29:05.618                             : Chapter 06
00:31:34.142                             : Chapter 07
00:33:34.012                             : Chapter 08
00:38:43.779                             : Chapter 09
00:42:02.728                             : Chapter 10
00:44:46.600                             : Chapter 11
00:50:18.265                             : Chapter 12
00:54:50.870                             : Chapter 13
00:59:42.453                             : Chapter 14
01:01:23.221                             : Chapter 15
01:05:21.584                             : Chapter 16



Скриншоты:
[+] Всего файлов в раздаче - 1:

Похожие раздачи по запросу - клаустрофобы:
2021-12-07 U Клаустрофобы 2: Лига выживших / Escape Room: Tournament of Champions (2021) BDRip 1080p от селезень | Театральная версия | Лицензия 8.91 GB ↑ 37 ↓ 6
2021-12-04 U Клаустрофобы 2: Лига выживших / Escape Room: Tournament of Champions (2021) BDRip 1080p | Extended Cut | D | Лицензия 1К9.15 GB ↑ 336 ↓ 194
2021-12-04 U Клаустрофобы 2: Лига выживших / Escape Room: Tournament of Champions (2021) BDRip 720p | Extended Cut | D | Лицензия 3К3.28 GB ↑ 219 ↓ 71
2021-12-04 U Клаустрофобы 2: Лига выживших / Escape Room: Tournament of Champions (2021) BDRip-AVC | Extended Cut | D | Лицензия 1К745.12 MB ↑ 51 ↓ 11
2021-12-04 U Клаустрофобы 2: Лига выживших / Escape Room: Tournament of Champions (2021) BDRemux 1080p | Extended Cut | D | Лицензия 18.54 GB ↑ 82 ↓ 64
2021-12-04 U Клаустрофобы 2: Лига выживших / Escape Room: Tournament of Champions (2021) BDRip от MegaPeer | Extended Cut | Лицензия 1К1.46 GB ↑ 57 ↓ 27
2021-09-11 U Клаустрофобы 2: Лига выживших / Escape Room: Tournament of Champions (2021) WEB-DLRip | Pazl Voice 1.47 GB ↑ 205 ↓ 56

Отзывы
Зарегистрируйтесь чтобы добавить комментарий.
Торрент клиент
byTorrent - программа для загрузки торрент-файлов.

Скачать byTorrent


Поддержи torrent.by
российских рублей
(300 российских рублей это 4$)

Обратная связь rss
End ©