↑↓torrent.by
Поиск
Логин: Регистрация
Пароль: Восстановить пароль

Митчеллы против машин / The Mitchells vs. the Machines (2021) HDRip-AVC | Netflix

Скачать mitchelly-protiv-mashin-the-mitchells-vs-machines-2021-hdrip-avc-netflix.torrent
U Магнитная ссылка Размер: 2.18 GB Раздают: 36 Качают: 9 Добавлен: 2021-12-07 09:36:05
Митчеллы против машин / The Mitchells vs. the Machines (2021) HDRip-AVC | Netflix

Название: Митчеллы против машин
Оригинальное название: The Mitchells vs. the Machines
Год выхода: 2021
Жанр:  Мультфильм, фантастика, комедия, приключения, семейный
Режиссер: Майкл Рианда, Джефф Роу
В ролях: Дэйв Фоли, Эбби Джейкобсон, Дэнни МакБрайд, Майя Рудольф, Эрик Андре, Майкл Рианда

О фильме:
Мультфильм рассказывает о не самой дружной, но все же любящей семье Митчеллов, которые отправляются в поездку и сталкиваются с восстанием машин. Оказывается, что по всему миру все электронные устройства, от мобильных до автомобилей с автопилотом, настроились против людей. Митчеллам приходится отложить все личные проблемы, чтобы спасти человечество.

Страна: США, Канада, Франция
Студия: Columbia Pictures Corporation, Lord Miller, Sony Pictures Animation
Продолжительность: 01:49:38
Перевод: Дублированный | Netflix
Субтитры: Русские (Forced, full)

Файл
Формат: Matroska
Качество: HDRip-AVC
Видео: 1024x554 at 23.976 fps, x264@L4.1, ~2401 kbps
Аудио: AC3, 6 ch, ~448 kbps - | Русский |
Формат субтитров: softsub (SRT)

***Релиз от: -=DoMiNo=-


[+] M/I
General
Unique ID                   : 21546639195282248057683849958940520247 (0x1035BB54CD0CA52E38FC0B1BDC94AF37)
Complete name               : K:The.Mitchells.vs.the.Machines.2021.DUB.HDRip.x264.mkv
Format                      : Matroska
Format version              : Version 4
File size                   : 2.18 GiB
Duration                    : 1 h 49 min
Overall bit rate            : 2 851 kb/s
Encoded date                : UTC 2021-12-06 12:37:25
Writing application         : mkvmerge v63.0.0 ('Everything') 64-bit
Writing library             : libebml v1.4.2 + libmatroska v1.6.4
Cover                       : Yes
Attachments                 : cover.jpg / cover 2.jpg

Video
ID                          : 1
Format                      : AVC
Format/Info                 : Advanced Video Codec
Format profile              : High@L4.1
Format settings             : CABAC / 14 Ref Frames
Format settings, CABAC      : Yes
Format settings, Reference  : 14 frames
Codec ID                    : V_MPEG4/ISO/AVC
Duration                    : 1 h 49 min
Bit rate                    : 2 401 kb/s
Width                       : 1 024 pixels
Height                      : 554 pixels
Display aspect ratio        : 1.85:1
Frame rate mode             : Constant
Frame rate                  : 23.976 (24000/1001) FPS
Color space                 : YUV
Chroma subsampling          : 4:2:0
Bit depth                   : 8 bits
Scan type                   : Progressive
Bits/(Pixel*Frame)          : 0.177
Stream size                 : 1.84 GiB (84%)
Title                       : -=DoMiNo=-
Writing library             : x264 core 164 r3075+55M 97d28bb t_mod_New [(8 & 10)-bit@all X86_64]
Encoding settings           : cabac=1 / ref=14 / deblock=1:-2:-2 / analyse=0x3:0x133 / me=umh / subme=10 / psy=1 / fade_compensate=0.00 / psy_rd=1.05:0.15 / mixed_ref=1 / me_range=32 / chroma_me=1 / trellis=2 / 8x8dct=1 / cqm=0 / deadzone=21,11 / fast_pskip=0 / chroma_qp_offset=-3 / threads=17 / lookahead_threads=4 / sliced_threads=0 / nr=0 / decimate=0 / interlaced=0 / bluray_compat=0 / constrained_intra=0 / fgo=0 / bframes=10 / b_pyramid=2 / b_adapt=2 / b_bias=0 / direct=3 / weightb=1 / open_gop=0 / weightp=2 / keyint=250 / keyint_min=23 / scenecut=40 / intra_refresh=0 / rc_lookahead=60 / rc=2pass / mbtree=0 / bitrate=2401 / ratetol=1.0 / qcomp=0.70 / qpmin=0:0:0 / qpmax=69:69:69 / qpstep=4 / cplxblur=20.0 / qblur=0.5 / vbv_maxrate=50000 / vbv_bufsize=62500 / nal_hrd=none / filler=0 / ip_ratio=1.40 / pb_ratio=1.30 / aq=3:0.80 / aq-sensitivity=10.00 / aq-factor=1.00:1.00:1.00 / aq2=0 / aq3=0
Language                    : English
Default                     : Yes
Forced                      : No

Audio
ID                          : 2
Format                      : AC-3
Format/Info                 : Audio Coding 3
Commercial name             : Dolby Digital
Codec ID                    : A_AC3
Duration                    : 1 h 49 min
Bit rate mode               : Constant
Bit rate                    : 448 kb/s
Channel(s)                  : 6 channels
Channel layout              : L R C LFE Ls Rs
Sampling rate               : 48.0 kHz
Frame rate                  : 31.250 FPS (1536 SPF)
Compression mode            : Lossy
Stream size                 : 351 MiB (16%)
Title                       : DUB
Language                    : Russian
Service kind                : Complete Main
Default                     : Yes
Forced                      : Yes

Text #1
ID                          : 3
Format                      : UTF-8
Codec ID                    : S_TEXT/UTF8
Codec ID/Info               : UTF-8 Plain Text
Duration                    : 1 h 48 min
Bit rate                    : 5 b/s
Count of elements           : 129
Stream size                 : 4.05 KiB (0%)
Title                       : Forced
Language                    : Russian
Default                     : Yes
Forced                      : Yes

Text #2
ID                          : 4
Format                      : UTF-8
Codec ID                    : S_TEXT/UTF8
Codec ID/Info               : UTF-8 Plain Text
Duration                    : 1 h 48 min
Bit rate                    : 99 b/s
Count of elements           : 1558
Stream size                 : 79.6 KiB (0%)
Language                    : Russian
Default                     : No
Forced                      : No

Menu
00:00:00.000                : en:Chapter 01
00:06:16.042                : en:Chapter 02
00:14:18.483                : en:Chapter 03
00:18:56.385                : en:Chapter 04
00:24:53.575                : en:Chapter 05
00:31:55.831                : en:Chapter 06
00:36:30.271                : en:Chapter 07
00:45:45.117                : en:Chapter 08
00:49:55.492                : en:Chapter 09
00:54:17.004                : en:Chapter 10
01:02:29.829                : en:Chapter 11
01:08:49.333                : en:Chapter 12
01:15:51.505                : en:Chapter 13
01:25:21.032                : en:Chapter 14
01:30:32.051                : en:Chapter 15
01:38:45.294                : en:Chapter 16



Скриншоты:
[+] Всего файлов в раздаче - 1:

Похожие раздачи по запросу - митчеллы:
2022-01-02 U Митчеллы против машин / The Mitchells vs. the Machines (2021) BDRip-HEVC 1080p от TaurohtaR | Netflix 7.79 GB ↑ 24 ↓ 14
2021-12-14 U Митчеллы против машин / The Mitchells vs. the Machines (2021) BDRip-AVC от HELLYWOOD | Netflix 1К2.92 GB ↑ 19 ↓ 18
2021-12-09 U Митчеллы против машин / The Mitchells vs. the Machines (2021) BDRip от MegaPeer | Netflix 3К1.46 GB ↑ 75 ↓ 21
2021-12-09 U Митчеллы против машин / The Mitchells vs. the Machines (2021) BDRip от MegaPeer | Netflix 2.18 GB ↑ 48 ↓ 9
2021-12-07 U Митчеллы против машин / The Mitchells vs. the Machines (2021) HDRip-AVC | Netflix 1К745.76 MB ↑ 41 ↓ 9
2021-12-06 U Митчеллы против машин / The Mitchells vs. the Machines (2021) HDRip от MegaPeer | Netflix 3К1.46 GB ↑ 138 ↓ 41
2021-12-06 U Митчеллы против машин / The Mitchells vs. the Machines (2021) BDRip 1080p от селезень | Netflix 20.14 GB ↑ 53 ↓ 30

Отзывы
Зарегистрируйтесь чтобы добавить комментарий.
Торрент клиент
byTorrent - программа для загрузки торрент-файлов.

Скачать byTorrent


Поддержи torrent.by
российских рублей
(300 российских рублей это 4$)

Обратная связь rss
End ©