↑↓torrent.by
Поиск
Логин: Регистрация
Пароль: Восстановить пароль

Холодный расчет / The Card Counter (2021) BDRip 720p от селезень | D

Скачать holodnyy-raschet-the-card-counter-2021-bdrip-720p-ot-selezen-d.torrent
U Магнитная ссылка Размер: 6.00 GB Раздают: 49 Качают: 18 Добавлен: 2021-12-07 09:36:22
Холодный расчет / The Card Counter (2021) BDRip 720p от селезень | D

Название: Холодный расчет
Оригинальное название: The Card Counter
Год выхода: 2021
Жанр: Боевик, триллер, драма, криминал
Режиссер: Пол Шредер
В ролях: Оскар Айзек, Уиллем Дефо, Тиффани Хэддиш, Тай Шеридан, Джоэль Майкли, Эми Гуссет, Александр Бабара, Марлон Хэйс, Хассель Кромер, Бриттон Вебб

О фильме: Уильям Телл — бывший военный, который после ухода со службы стал заядлым игроком в карты. Однажды к нему за помощью обращается Кирк, жаждущий отомстить их общему врагу, полковнику. Телл надеется искупить собственные грехи, пытаясь переубедить молодого человека. Вместе они колесят по многочисленным казино Лас-Вегаса, пока пучина прошлого не накрывает их с головой.

Страна: Великобритания, Китай, США
Студия: Astrakan Film AB, Bona Film Group, Convergent Media, Convergent Media., Enriched Media Group
Продолжительность: 01:51:29
Перевод: Дублированный | Мосфильм-Мастер

Качество: BDRip 720p
Видео: MPEG-4 AVC, 1200x720, 6618 Kbit/s, 23.976 fps
Аудио #01: 48 kHz, AC3, 5.1, 448 Kbps | Дублированный | Мосфильм-Мастер | RUS |
Аудио #02: 48 kHz, AC3, 5.1, 640 Kbps | Оригинал | ENG |
Субтитры: Русские (Full), английские

Релиз: Присоединяйся к:


[+] MI
General
Unique ID                                : 278404217015682108140712904979117652610 (0xD172B3AA6FF9FA03C263805F5F1A3A82)
Complete name                            : E:VideoThe.Card.Counter.2021.BDRip.720p.seleZen.mkv
Format                                   : Matroska
Format version                           : Version 4
File size                                : 6.00 GiB
Duration                                 : 1 h 51 min
Overall bit rate                         : 7 709 kb/s
Movie name                               : The Card Counter 2021 from seleZen
Encoded date                             : UTC 2021-12-06 21:08:01
Writing application                      : mkvmerge v59.0.0 ('Shining Star') 64-bit
Writing library                          : libebml v1.4.2 + libmatroska v1.6.4

Video
ID                                       : 1
Format                                   : AVC
Format/Info                              : Advanced Video Codec
Format profile                           : High@L4.1
Format settings                          : CABAC / 9 Ref Frames
Format settings, CABAC                   : Yes
Format settings, Reference frames        : 9 frames
Codec ID                                 : V_MPEG4/ISO/AVC
Duration                                 : 1 h 51 min
Bit rate                                 : 6 618 kb/s
Width                                    : 1 200 pixels
Height                                   : 720 pixels
Display aspect ratio                     : 5:3
Frame rate mode                          : Constant
Frame rate                               : 23.976 (24000/1001) FPS
Color space                              : YUV
Chroma subsampling                       : 4:2:0
Bit depth                                : 8 bits
Scan type                                : Progressive
Bits/(Pixel*Frame)                       : 0.319
Stream size                              : 5.15 GiB (86%)
Title                                    : iFT
Writing library                          : x264 core 163 r3059+79M ~ Encoded by Mocunaman in Portugal
Encoding settings                        : cabac=1 / ref=9 / deblock=1:-3:-3 / analyse=0x3:0x113 / me=umh / subme=11 / psy=1 / fade_compensate=0.00 / psy_rd=1.00:0.00 / mixed_ref=1 / me_range=48 / chroma_me=1 / trellis=2 / 8x8dct=1 / cqm=0 / deadzone=21,11 / fast_pskip=0 / chroma_qp_offset=-2 / threads=22 / lookahead_threads=3 / sliced_threads=0 / nr=0 / decimate=0 / interlaced=0 / bluray_compat=0 / constrained_intra=0 / fgo=0 / bframes=9 / b_pyramid=2 / b_adapt=2 / b_bias=0 / direct=3 / weightb=1 / open_gop=0 / weightp=2 / keyint=250 / keyint_min=23 / scenecut=40 / intra_refresh=0 / rc_lookahead=60 / rc=crf / mbtree=0 / crf=16.5000 / qcomp=0.60 / qpmin=0:0:0 / qpmax=69:69:69 / qpstep=4 / vbv_maxrate=62500 / vbv_bufsize=78125 / crf_max=0.0 / nal_hrd=none / filler=0 / ip_ratio=1.30 / pb_ratio=1.20 / aq=3:0.80 / aq-sensitivity=10.00 / aq-factor=1.00:1.00:1.00 / aq2=0 / aq3=0 / zones=3817,4832,crf=14.5/10064,13018,crf=14.5/22858,24070,crf=14.5/29205,30333,crf=14.5/31819,33427,crf=15.5/40963,43147,crf=15.5/79285,80097,crf=13.5/80413,81441,crf=13.5/84378,84806,crf=14.5/86437,86759,crf=14.5/97631,98288,crf=14.5/105554,105834,crf=14.5/105835,109771,crf=15.5/117402,126780,crf=15.5/138225,149941,crf=14.5/150205,159277,crf=14.5
Language                                 : English
Default                                  : Yes
Forced                                   : No
Color range                              : Limited
Color primaries                          : BT.709
Transfer characteristics                 : BT.709
Matrix coefficients                      : BT.709

Audio #1
ID                                       : 2
Format                                   : AC-3
Format/Info                              : Audio Coding 3
Commercial name                          : Dolby Digital
Codec ID                                 : A_AC3
Duration                                 : 1 h 51 min
Bit rate mode                            : Constant
Bit rate                                 : 448 kb/s
Channel(s)                               : 6 channels
Channel layout                           : L R C LFE Ls Rs
Sampling rate                            : 48.0 kHz
Frame rate                               : 31.250 FPS (1536 SPF)
Compression mode                         : Lossy
Stream size                              : 357 MiB (6%)
Title                                    : Dub
Language                                 : Russian
Service kind                             : Complete Main
Default                                  : Yes
Forced                                   : Yes

Audio #2
ID                                       : 3
Format                                   : AC-3
Format/Info                              : Audio Coding 3
Commercial name                          : Dolby Digital
Codec ID                                 : A_AC3
Duration                                 : 1 h 51 min
Bit rate mode                            : Constant
Bit rate                                 : 640 kb/s
Channel(s)                               : 6 channels
Channel layout                           : L R C LFE Ls Rs
Sampling rate                            : 48.0 kHz
Frame rate                               : 31.250 FPS (1536 SPF)
Compression mode                         : Lossy
Stream size                              : 510 MiB (8%)
Title                                    : Original
Language                                 : English
Service kind                             : Complete Main
Default                                  : No
Forced                                   : No

Text #1
ID                                       : 4
Format                                   : UTF-8
Codec ID                                 : S_TEXT/UTF8
Codec ID/Info                            : UTF-8 Plain Text
Duration                                 : 1 h 43 min
Bit rate                                 : 77 b/s
Count of elements                        : 1212
Stream size                              : 58.8 KiB (0%)
Title                                    : Full
Language                                 : Russian
Default                                  : No
Forced                                   : No

Text #2
ID                                       : 5
Format                                   : UTF-8
Codec ID                                 : S_TEXT/UTF8
Codec ID/Info                            : UTF-8 Plain Text
Duration                                 : 1 h 43 min
Bit rate                                 : 49 b/s
Count of elements                        : 1351
Stream size                              : 37.5 KiB (0%)
Title                                    : Full
Language                                 : English
Default                                  : No
Forced                                   : No

Menu
00:00:00.000                             : Chapter 01
00:05:20.487                             : Chapter 02
00:09:02.041                             : Chapter 03
00:16:36.204                             : Chapter 04
00:20:18.092                             : Chapter 05
00:23:23.819                             : Chapter 06
00:31:04.404                             : Chapter 07
00:37:41.176                             : Chapter 08
00:43:58.803                             : Chapter 09
00:48:45.172                             : Chapter 10
00:54:17.713                             : Chapter 11
01:00:18.615                             : Chapter 12
01:07:48.481                             : Chapter 13
01:13:34.201                             : Chapter 14
01:18:26.744                             : Chapter 15
01:21:35.766                             : Chapter 16
01:28:04.613                             : Chapter 17
01:32:26.666                             : Chapter 18
01:38:31.739                             : Chapter 19
01:46:18.163                             : Chapter 20



Скриншоты:
[+] Всего файлов в раздаче - 1:

Похожие раздачи по запросу - холодный:
2021-12-08 U Холодный расчет / The Card Counter (2021) HDRip-AVC | D 2.01 GB ↑ 59 ↓ 8
2021-12-07 U Холодный расчет / The Card Counter (2021) HDRip от MegaPeer | D 1.46 GB ↑ 77 ↓ 25
2021-10-10 U Холодный расчет / The Card Counter (2021) WEB-DLRip-AVC | iTunes 1.86 GB ↑ 343 ↓ 63
2021-10-09 U Холодный расчет / The Card Counter (2021) WEB-DL 1080p от селезень | iTunes 3.95 GB ↑ 476 ↓ 175
2021-10-09 U Холодный расчет / The Card Counter (2021) UHD WEB-DL-HEVC 2160p от селезень | 4K | HDR | iTunes 12.01 GB ↑ 126 ↓ 56
2021-10-09 U Холодный расчет / The Card Counter (2021) WEB-DLRip от ELEKTRI4KA | iTunes 1.46 GB ↑ 253 ↓ 25
2021-10-04 U Холодный расчет / The Card Counter (2021) WEB-DL 1080p | D, L2 | Line 7.02 GB ↑ 170 ↓ 52

Отзывы
Зарегистрируйтесь чтобы добавить комментарий.
Торрент клиент
byTorrent - программа для загрузки торрент-файлов.

Скачать byTorrent


Поддержи torrent.by
российских рублей
(300 российских рублей это 4$)

Обратная связь rss
End ©