↑↓torrent.by
Поиск
Логин: Регистрация
Пароль: Восстановить пароль

Универ. 10 лет спустя [01 из 12] (2021) WEBRip 1080p

Скачать univer-10-let-spustya-01-iz-12-2021-webrip-1080p.torrent
U Магнитная ссылка Размер: 1.50 GB Раздают: 201 Качают: 60 Добавлен: 2021-12-07 09:37:40
Универ. 10 лет спустя [01 из 12] (2021) WEBRip 1080p

Название: Универ. 10 лет спустя
Год выхода: 2021
Жанр: Комедия, мелодрама, драма
Режиссер: Сергей Черников
В ролях: Арарат Кещян, Станислав Ярушин, Анна Кузина, Екатерина Молоховская, Настасья Самбурская, Анна Хилькевич, Александр Мартынов (IV), Сергей Пиоро, Мария Чернолихова, Алексей Аникин, Анатолий Белый, Алексей Серебряков, Артём Шевченко, Таисия Котова, Анастасия Драголюб, Вера Островская, Гарик Айвазов, Андрей Юртаев, Татьяна Яхина, Николай Ткаченко, Алёна Яковлева (II), Алиса Шевердина, Игорь Днепров, Ольга Ковалёва, Кристина Черданцева, Ксения Криницына-Сажина, Анастасия Вивденко, Игорь Ким, Антон Ромм, Александр Гох, Татьяна Выдрина, Софья Скальская, Артур Павленко, Анна Науменко, Марина Дианова, Алёна Малахова, Сергей Остапов, Андрей Кузнецов (VII), Александр Шестопалов, Александр Лебедев (III)

О фильме:
В центре сюжета — отношения Антона и Кристины, Маши и Вали, Майкла и Вари, а также непростая история Яны. Ребята выросли и покинули общагу, у них появились семьи, работа, кого-то начал затягивать быт, кого-то настиг возрастной кризис. Жизни героев сложились по-разному, но они по-прежнему дружат и помогают друг другу.

Страна: Россия
Студия: Производство ООО «Комеди Клаб продакшн»
Продолжительность: 1 х ~ 00:45:00
Язык: Русский

Премьера: 06 декабря 2021 года (ТНТ)
Примечание: Без рекламы

Файл
Формат: MKV
Качество: WEBRip 1080p
Видео: MPEG-4 AVC, ~ 4500 Кбит/с, 1920x1072
Звук: AC3, 2 ch, 192 Кбит/с
Субтитры: Отсутствуют
Семпл


[+] MI
Общее
Уникальный идентификатор                 : 46276614415728531849273076289956106631 (0x22D08D3F0452990E26F186A6B3EE5187)
Полное имя                               : D:Univer.10.let.spustya.S01.2021.WEB-DL.1080pUniver.10.let.spustya.S01.E01.2021.WEB-DL.1080p.mkv
Формат                                   : Matroska
Версия формата                           : Version 4
Размер файла                             : 1,50 Гбайт
Продолжительность                        : 46 м. 2 с.
Режим общего битрейта                    : Переменный
Общий поток                              : 4 657 Кбит/сек
Название фильма                          : Univer.10.let.spustya.S01.E01.2021.WEB-DL.1080p
Дата кодирования                         : UTC 2021-12-06 18:06:09
Программа кодирования                    : mkvmerge v63.0.0 ('Everything') 64-bit
Библиотека кодирования                   : libebml v1.4.2 + libmatroska v1.6.4
Attachments                              : poster.jpg

Видео
Идентификатор                            : 1
Формат                                   : AVC
Формат/Информация                        : Advanced Video Codec
Профиль формата                          : High@L4
Настройки формата                        : CABAC / 1 Ref Frames
Параметр CABAC формата                   : Да
Параметр RefFrames формата               : 1 кадр
Параметр GOP формата                     : M=1, N=50
Идентификатор кодека                     : V_MPEG4/ISO/AVC
Продолжительность                        : 46 м. 2 с.
Вид битрейта                             : Переменный
Битрейт                                  : 4 500 Кбит/сек
Ширина                                   : 1 920 пикселей
Высота                                   : 1 072 пикселя
Соотношение сторон                       : 16:9
Режим частоты кадров                     : Постоянный
Частота кадров                           : 25,000 кадров/сек
Цветовое пространство                    : YUV
Субдискретизация насыщенности            : 4:2:0
Битовая глубина                          : 8 бит
Тип развёртки                            : Прогрессивная
Бит/(Пиксели*Кадры)                      : 0.087
Размер потока                            : 1,44 Гбайт (96%)
Default                                  : Да
Forced                                   : Нет

Аудио
Идентификатор                            : 2
Формат                                   : AC-3
Формат/Информация                        : Audio Coding 3
Коммерческое название                    : Dolby Digital
Идентификатор кодека                     : A_AC3
Продолжительность                        : 46 м. 2 с.
Вид битрейта                             : Постоянный
Битрейт                                  : 192 Кбит/сек
Каналы                                   : 2 канала
Channel layout                           : L R
Частота                                  : 48,0 КГц
Частота кадров                           : 31,250 кадров/сек (1536 SPF)
Метод сжатия                             : С потерями
Размер потока                            : 63,2 Мбайт (4%)
Service kind                             : Complete Main
Default                                  : Да
Forced                                   : Нет



Скриншоты:
[+] Всего файлов в раздаче - 1:
Univer.10.let.spustya.S01.E01.2021.WEB-DL.1080p.mkv1.50 GB

Похожие раздачи по запросу - универ:
2021-12-26 U Универ. 10 лет спустя [01-12 из 12] (2021) WEBRip-AVC от Generalfilm | КПК 2.41 GB ↑ 54 ↓ 75
2021-12-24 U Универ. 10 лет спустя [01-12 из 12] (2021) WEBRip-AVC от Files-x 6.83 GB ↑ 55 ↓ 64
2021-12-23 U Универ. 10 лет спустя [01-12 из 12] (2021) WEBRip 1080p 2К17.75 GB ↑ 132 ↓ 446
2021-12-23 U Универ. 10 лет спустя [01-12 из 12] (2021) SATRip 2К7.00 GB ↑ 232 ↓ 798
2021-12-23 U Универ. 10 лет спустя [01-11 из 12] (2021) WEBRip-AVC от Files-x 6.23 GB ↑ 54 ↓ 144
2021-12-23 U Универ. 10 лет спустя [01-11 из 12] (2021) HDTV 1080i 1К37.86 GB ↑ 33 ↓ 382
2021-12-23 U Универ. 10 лет спустя [01-11 из 12] (2021) WEBRip 1080p 16.19 GB ↑ 40 ↓ 108

Отзывы
vanich_4
все хейтеры мимо!!! раздающему респект!!!смотрю с первой серии!!!сериал все тупее и тупее, но должно в жизни быть что то постоянное:))))

78164nn78164
какккая дичь, просто МАМАДАРАГАЯ, ПАМАХИТИ!

larubi1986
1 серия на 2 -сюжет-юмор ноль- коментарии пишут сериал туповатий но ставлять 10 - может ставить 10 за тупой сереал ето туповато?

Зарегистрируйтесь чтобы добавить комментарий.
Торрент клиент
byTorrent - программа для загрузки торрент-файлов.

Скачать byTorrent


Поддержи torrent.by
российских рублей
(300 российских рублей это 4$)

Обратная связь rss
End ©