↑↓torrent.by
Поиск
Логин: Регистрация
Пароль: Восстановить пароль

Не время умирать / No Time to Die (2021) WEB-DL 1080p от селезень | iTunes

Скачать ne-vremya-umirat-no-time-to-die-2021-web-dl-1080p-ot-selezen-itunes.torrent
U Магнитная ссылка Размер: 11.66 GB Раздают: 84 Качают: 70 Добавлен: 2021-12-08 03:55:09
Не время умирать / No Time to Die (2021) WEB-DL 1080p от селезень | iTunes

Название: Не время умирать
Оригинальное название: No Time to Die
Год выхода: 2021
Жанр: Боевик, триллер, приключения
Режиссер: Кэри Дзёдзи Фукунага
В ролях: Дэниэл Крэйг, Леа Сейду, Рами Малек, Лашана Линч, Рэйф Файнс, Бен Уишоу, Наоми Харрис, Рори Киннер, Джеффри Райт, Билли Магнуссен, Кристоф Вальц, Давид Денсик, Ана де Армас, Дали Бенссалах, Лиза-Дора Соннет

О фильме: Оставив службу, Бонд наслаждается красивой жизнью со своей возлюбленной Мадлен Суонн и пытается навсегда распрощаться с прошлым. Однако покою быстро приходит конец, когда прошлое настигает героя в лице его заклятых врагов. Старинный друг Бонда из ЦРУ Феликс Лейтер просит бывшего агента 007 разыскать похищенного ученого Валдо Обручева, участвовавшего в секретной разработке наноботов — смертельного вируса, который проникает в кожу человека и способен убивать при малейшем контакте с зараженным. Бонду предстоит раскрыть таинственного злодея, в чьих руках вирус оказывается оружием массового поражения, и спасти тех, кто ему дорог.

Страна: Великобритания, США
Студия: B25, Cinesite, Danjaq, Eon Productions Ltd., Metro-Goldwyn-Mayer (MGM), Universal Pictures
Продолжительность: 02:43:23
Перевод: Дублированный | iTunes

Качество: WEB-DL 1080p
Видео: MPEG-4 AVC, 1920x800, 9062 Kbit/s, 23.976 fps
Аудио #01: 48 kHz, AC3, 5.1, 384 Kbps | iTunes | RUS |
Аудио #02: 48 kHz, E-AC3+Atmos, 5.1, 768 Kbps | Оригинал | ENG |
Субтитры: Русские (Forced, full), английские

Релиз: Присоединяйся к:


[+] MI
General
Unique ID                                : 253549687297070792367689102245264646775 (0xBEBFE4BD6F4BA34B56476D13F4486277)
Complete name                            : E:VideoNo.Time.to.Die.2021.AMZN.WEB-DL.1080p.seleZen.mkv
Format                                   : Matroska
Format version                           : Version 4
File size                                : 11.7 GiB
Duration                                 : 2 h 43 min
Overall bit rate                         : 10.2 Mb/s
Movie name                               : No Time to Die 2021 from seleZen
Encoded date                             : UTC 2021-12-07 21:25:02
Writing application                      : mkvmerge v59.0.0 ('Shining Star') 64-bit
Writing library                          : libebml v1.4.2 + libmatroska v1.6.4

Video
ID                                       : 1
Format                                   : AVC
Format/Info                              : Advanced Video Codec
Format profile                           : High@L4
Format settings                          : CABAC / 4 Ref Frames
Format settings, CABAC                   : Yes
Format settings, Reference frames        : 4 frames
Codec ID                                 : V_MPEG4/ISO/AVC
Duration                                 : 2 h 43 min
Bit rate mode                            : Constant
Bit rate                                 : 9 062 kb/s
Nominal bit rate                         : 10 000 kb/s
Width                                    : 1 920 pixels
Height                                   : 800 pixels
Display aspect ratio                     : 2.40:1
Frame rate mode                          : Constant
Frame rate                               : 23.976 (24000/1001) FPS
Color space                              : YUV
Chroma subsampling                       : 4:2:0
Bit depth                                : 8 bits
Scan type                                : Progressive
Bits/(Pixel*Frame)                       : 0.246
Stream size                              : 10.3 GiB (89%)
Language                                 : English
Default                                  : Yes
Forced                                   : No
Color range                              : Limited
Color primaries                          : BT.709
Transfer characteristics                 : BT.709
Matrix coefficients                      : BT.709

Audio #1
ID                                       : 2
Format                                   : AC-3
Format/Info                              : Audio Coding 3
Commercial name                          : Dolby Digital
Codec ID                                 : A_AC3
Duration                                 : 2 h 43 min
Bit rate mode                            : Constant
Bit rate                                 : 384 kb/s
Channel(s)                               : 6 channels
Channel layout                           : L R C LFE Ls Rs
Sampling rate                            : 48.0 kHz
Frame rate                               : 31.250 FPS (1536 SPF)
Compression mode                         : Lossy
Stream size                              : 449 MiB (4%)
Title                                    : iTunes
Language                                 : Russian
Service kind                             : Complete Main
Default                                  : Yes
Forced                                   : Yes

Audio #2
ID                                       : 3
Format                                   : E-AC-3 JOC
Format/Info                              : Enhanced AC-3 with Joint Object Coding
Commercial name                          : Dolby Digital Plus with Dolby Atmos
Codec ID                                 : A_EAC3
Duration                                 : 2 h 43 min
Bit rate mode                            : Constant
Bit rate                                 : 768 kb/s
Channel(s)                               : 6 channels
Channel layout                           : L R C LFE Ls Rs
Sampling rate                            : 48.0 kHz
Frame rate                               : 31.250 FPS (1536 SPF)
Compression mode                         : Lossy
Stream size                              : 898 MiB (8%)
Title                                    : Original
Language                                 : English
Service kind                             : Complete Main
Default                                  : No
Forced                                   : No
Complexity index                         : 16
Number of dynamic objects                : 15
Bed channel count                        : 1 channel
Bed channel configuration                : LFE

Text #1
ID                                       : 4
Format                                   : UTF-8
Codec ID                                 : S_TEXT/UTF8
Codec ID/Info                            : UTF-8 Plain Text
Duration                                 : 2 h 42 min
Bit rate                                 : 1 b/s
Count of elements                        : 52
Stream size                              : 1.95 KiB (0%)
Title                                    : Forced
Language                                 : Russian
Default                                  : Yes
Forced                                   : Yes

Text #2
ID                                       : 5
Format                                   : UTF-8
Codec ID                                 : S_TEXT/UTF8
Codec ID/Info                            : UTF-8 Plain Text
Duration                                 : 2 h 42 min
Bit rate                                 : 64 b/s
Count of elements                        : 1735
Stream size                              : 76.3 KiB (0%)
Title                                    : Full
Language                                 : English
Default                                  : No
Forced                                   : No

Text #3
ID                                       : 6
Format                                   : UTF-8
Codec ID                                 : S_TEXT/UTF8
Codec ID/Info                            : UTF-8 Plain Text
Duration                                 : 2 h 15 min
Bit rate                                 : 1 b/s
Count of elements                        : 55
Stream size                              : 1.21 KiB (0%)
Title                                    : Forced
Language                                 : English
Default                                  : No
Forced                                   : No

Text #4
ID                                       : 7
Format                                   : UTF-8
Codec ID                                 : S_TEXT/UTF8
Codec ID/Info                            : UTF-8 Plain Text
Duration                                 : 2 h 35 min
Bit rate                                 : 41 b/s
Count of elements                        : 1707
Stream size                              : 47.2 KiB (0%)
Title                                    : Full
Language                                 : English
Default                                  : No
Forced                                   : No

Text #5
ID                                       : 8
Format                                   : UTF-8
Codec ID                                 : S_TEXT/UTF8
Codec ID/Info                            : UTF-8 Plain Text
Duration                                 : 2 h 40 min
Bit rate                                 : 50 b/s
Count of elements                        : 2191
Stream size                              : 59.5 KiB (0%)
Title                                    : SDH
Language                                 : English
Default                                  : No
Forced                                   : No

Menu
00:00:00.000                             : Chapter 1
00:11:57.125                             : Chapter 2
00:27:09.750                             : Chapter 3
00:43:46.000                             : Chapter 4
00:56:58.099                             : Chapter 5
01:04:09.000                             : Chapter 6
01:13:06.500                             : Chapter 7
01:22:28.832                             : Chapter 8
01:33:49.332                             : Chapter 9
01:51:42.000                             : Chapter 10
02:06:54.000                             : Chapter 11
02:25:23.500                             : Chapter 12
02:35:07.000                             : Chapter 13



Скриншоты:
[+] Всего файлов в раздаче - 1:

Похожие раздачи по запросу - время:
2022-01-18 U Джон Гришэм - Время прощать (2021) MP3 579.38 MB ↑ 40 ↓ 8
2022-01-16 U Левина Д. - Книга вдохновения. Сезонные рецепты, стиль и идеи домашнего декора на каждое время года (2022) PDF 11.95 MB ↑ 60 ↓ 30
2022-01-15 U Интимная жизнь во время оккупации / L'occupation intime (2011) DVB | P2 1.94 GB ↑ 217 ↓ 132
2022-01-01 U Уральские пельмени. Пир во время зимы [эфир от 31.12] (2021) WEBRip 1080p от DolgOFF 1.75 GB ↑ 349 ↓ 239
2021-12-22 U Не время умирать / No Time to Die (2021) BDRip-AVC от HELLYWOOD | iTunes 1.46 GB ↑ 74 ↓ 31
2021-12-21 U Не время умирать / No Time to Die (2021) Hybrid 1080p | D | IMAX | iTunes 6.67 GB ↑ 57 ↓ 51
2021-12-18 U Не время умирать / No Time to Die (2021) BDRip 1080p от Generalfilm | iTunes 11.41 GB ↑ 44 ↓ 47

Отзывы
Зарегистрируйтесь чтобы добавить комментарий.
Торрент клиент
byTorrent - программа для загрузки торрент-файлов.

Скачать byTorrent


Поддержи torrent.by
российских рублей
(300 российских рублей это 4$)

Обратная связь rss
End ©