↑↓torrent.by
Поиск
Логин: Регистрация
Пароль: Восстановить пароль

Не время умирать / No Time to Die (2021) WEB-DL 1080p от New-Team | iTunes, Jaskier

Скачать ne-vremya-umirat-no-time-to-die-2021-web-dl-1080p-ot-new-team-itunes-jaskier.torrent
U Магнитная ссылка Размер: 11.95 GB Раздают: 80 Качают: 86 Добавлен: 2021-12-08 16:34:23
Не время умирать / No Time to Die (2021) WEB-DL 1080p от New-Team | iTunes, Jaskier

Не время умирать / No Time to Die

Год выпуска: 2021
Выпущено: Великобритания, США / Universal Pictures, Metro-Goldwyn-Mayer (MGM), B25, Cinesite, Danjaq, Eon Productions Ltd.
Жанр: боевик, триллер, приключения
Режиссер: Кэри Дзёдзи Фукунага / Cary Joji Fukunaga
В ролях: Дэниел Крейг, Ана де Армас, Рами Малек, Леа Сейду, Лашана Линч, Ральф Файнс, Бен Уишоу, Наоми Харрис, Рори Киннер,
Джеффри Райт, Билли Магнуссен, Кристоф Вальц, Дэвид Денчик, Дали Бенссала, Лиза-Дора Соннет, Колин Дефо, Матильда Бурбин, Хью Деннис, Приянга Берфорд, Джо Гросси

О фильме: Джеймс Бонд оставил оперативную службу и наслаждается спокойной жизнью на Ямайке. Все меняется, когда на острове появляется его старый друг Феликс Лейтер из ЦРУ с просьбой о помощи. Миссия по спасению похищенного ученого оказывается опаснее, чем предполагалось изначально. Бонд попадает в ловушку к таинственному злодею, вооруженному опасным технологическим оружием.

Продолжительность: 02:43:23
Перевод: Дублированный (iTunes), профессиональный многоголосый (Jaskier)
Субтитры: Русские (Forced, full), aнглийские

Раздача от:

Автор релиза: JNS82.
Качество: WEB-DL 1080p | AMZN
Видео: MPEG-4 AVC, 9062 Кбит/с, 1920x800
Аудио #1: AC3, 6 ch, 384 Кбит/с | RUS| iTunes |
Аудио #2: AC3, 6 ch, 384 Кбит/с | RUS| Jaskier | Tnx.KinoPub
Аудио #3: E-AC3, 6 ch, 640 Кбит/с | ENG |
    ]


[+] M.info
Общее
Уникальный идентификатор                 : 246730815965467861452381765326517978664 (0xB99EA06D41480BC504D970F4FA5A4628)
Полное имя                               : E:TorrentsNo.Time.To.Die.2021.1080p_от New-Team_by_JNS82.mkv
Формат                                   : Matroska
Версия формата                           : Version 4
Размер файла                             : 12,0 Гбайт
Продолжительность                        : 2 ч. 43 м.
Общий поток                              : 10,5 Мбит/сек
Название фильма                          : No.Time.To.Die.2021.1080p_от New-Team_by_JNS82
Дата кодирования                         : UTC 2021-12-08 06:22:29
Программа кодирования                    : mkvmerge v59.0.0 ('Shining Star') 64-bit
Библиотека кодирования                   : libebml v1.4.2 + libmatroska v1.6.4

Видео
Идентификатор                            : 1
Формат                                   : AVC
Формат/Информация                        : Advanced Video Codec
Профиль формата                          : High@L4
Настройки формата                        : CABAC / 4 Ref Frames
Параметр CABAC формата                   : Да
Параметр RefFrames формата               : 4 кадра
Идентификатор кодека                     : V_MPEG4/ISO/AVC
Продолжительность                        : 2 ч. 43 м.
Вид битрейта                             : Постоянный
Битрейт                                  : 9 062 Кбит/сек
Номинальный битрейт                      : 10 000 Кбит/сек
Ширина                                   : 1 920 пикселей
Высота                                   : 800 пикселей
Соотношение сторон                       : 2,40:1
Режим частоты кадров                     : Постоянный
Частота кадров                           : 23,976 (24000/1001) кадра/сек
Цветовое пространство                    : YUV
Субдискретизация насыщенности            : 4:2:0
Битовая глубина                          : 8 бит
Тип развёртки                            : Прогрессивная
Бит/(Пиксели*Кадры)                      : 0.246
Размер потока                            : 10,3 Гбайт (87%)
Default                                  : Да
Forced                                   : Нет
Цветовой диапазон                        : Limited
Основные цвета                           : BT.709
Характеристики трансфера                 : BT.709
Коэффициенты матрицы                     : BT.709

Аудио #1
Идентификатор                            : 2
Формат                                   : AC-3
Формат/Информация                        : Audio Coding 3
Коммерческое название                    : Dolby Digital
Идентификатор кодека                     : A_AC3
Продолжительность                        : 2 ч. 43 м.
Вид битрейта                             : Постоянный
Битрейт                                  : 384 Кбит/сек
Каналы                                   : 6 каналов
Channel layout                           : L R C LFE Ls Rs
Частота                                  : 48,0 КГц
Частота кадров                           : 31,250 кадров/сек (1536 SPF)
Метод сжатия                             : С потерями
Размер потока                            : 449 Мбайт (4%)
Заголовок                                : iTunes
Язык                                     : Russian
Service kind                             : Complete Main
Default                                  : Да
Forced                                   : Нет

Аудио #2
Идентификатор                            : 3
Формат                                   : AC-3
Формат/Информация                        : Audio Coding 3
Коммерческое название                    : Dolby Digital
Идентификатор кодека                     : A_AC3
Продолжительность                        : 2 ч. 43 м.
Вид битрейта                             : Постоянный
Битрейт                                  : 384 Кбит/сек
Каналы                                   : 6 каналов
Channel layout                           : L R C LFE Ls Rs
Частота                                  : 48,0 КГц
Частота кадров                           : 31,250 кадров/сек (1536 SPF)
Метод сжатия                             : С потерями
Размер потока                            : 449 Мбайт (4%)
Заголовок                                : [MVO] Jaskier
Язык                                     : Russian
Service kind                             : Complete Main
Default                                  : Нет
Forced                                   : Нет

Аудио #3
Идентификатор                            : 4
Формат                                   : E-AC-3
Формат/Информация                        : Enhanced AC-3
Коммерческое название                    : Dolby Digital Plus
Идентификатор кодека                     : A_EAC3
Продолжительность                        : 2 ч. 43 м.
Вид битрейта                             : Постоянный
Битрейт                                  : 640 Кбит/сек
Каналы                                   : 6 каналов
Channel layout                           : L R C LFE Ls Rs
Частота                                  : 48,0 КГц
Частота кадров                           : 31,250 кадров/сек (1536 SPF)
Метод сжатия                             : С потерями
Размер потока                            : 748 Мбайт (6%)
Язык                                     : English
Service kind                             : Complete Main
Default                                  : Нет
Forced                                   : Нет

Текст #1
Идентификатор                            : 5
Формат                                   : UTF-8
Идентификатор кодека                     : S_TEXT/UTF8
Идентификатор кодека/Информация          : UTF-8 Plain Text
Продолжительность                        : 2 ч. 15 м.
Битрейт                                  : 2 бит/сек
Count of elements                        : 58
Размер потока                            : 2,18 Кбайт (0%)
Заголовок                                : [forced]
Язык                                     : Russian
Default                                  : Да
Forced                                   : Да

Текст #2
Идентификатор                            : 6
Формат                                   : UTF-8
Идентификатор кодека                     : S_TEXT/UTF8
Идентификатор кодека/Информация          : UTF-8 Plain Text
Продолжительность                        : 2 ч. 36 м.
Битрейт                                  : 68 бит/сек
Count of elements                        : 1721
Размер потока                            : 78,9 Кбайт (0%)
Заголовок                                : [Full [FOCS]]
Язык                                     : Russian
Default                                  : Нет
Forced                                   : Нет

Текст #3
Идентификатор                            : 7
Формат                                   : UTF-8
Идентификатор кодека                     : S_TEXT/UTF8
Идентификатор кодека/Информация          : UTF-8 Plain Text
Продолжительность                        : 2 ч. 35 м.
Битрейт                                  : 42 бит/сек
Count of elements                        : 1671
Размер потока                            : 48,4 Кбайт (0%)
Заголовок                                : English
Язык                                     : English
Default                                  : Нет
Forced                                   : Нет

Меню
00:00:00.000                             : Chapter 1
00:11:57.125                             : Chapter 2
00:27:09.750                             : Chapter 3
00:43:46.000                             : Chapter 4
00:56:58.099                             : Chapter 5
01:04:09.000                             : Chapter 6
01:13:06.500                             : Chapter 7
01:22:28.832                             : Chapter 8
01:33:49.332                             : Chapter 9
01:51:42.000                             : Chapter 10
02:06:54.000                             : Chapter 11
02:25:23.500                             : Chapter 12
02:35:07.000                             : Chapter 13




Скриншоты:
[+] Всего файлов в раздаче - 1:

Похожие раздачи по запросу - время:
2022-01-18 U Джон Гришэм - Время прощать (2021) MP3 579.38 MB ↑ 40 ↓ 8
2022-01-16 U Левина Д. - Книга вдохновения. Сезонные рецепты, стиль и идеи домашнего декора на каждое время года (2022) PDF 11.95 MB ↑ 60 ↓ 30
2022-01-15 U Интимная жизнь во время оккупации / L'occupation intime (2011) DVB | P2 1.94 GB ↑ 217 ↓ 132
2022-01-01 U Уральские пельмени. Пир во время зимы [эфир от 31.12] (2021) WEBRip 1080p от DolgOFF 1.75 GB ↑ 349 ↓ 239
2021-12-22 U Не время умирать / No Time to Die (2021) BDRip-AVC от HELLYWOOD | iTunes 1.46 GB ↑ 74 ↓ 31
2021-12-21 U Не время умирать / No Time to Die (2021) Hybrid 1080p | D | IMAX | iTunes 6.67 GB ↑ 57 ↓ 51
2021-12-18 U Не время умирать / No Time to Die (2021) BDRip 1080p от Generalfilm | iTunes 11.41 GB ↑ 44 ↓ 47

Отзывы
Зарегистрируйтесь чтобы добавить комментарий.
Торрент клиент
byTorrent - программа для загрузки торрент-файлов.

Скачать byTorrent


Поддержи torrent.by
российских рублей
(300 российских рублей это 4$)

Обратная связь rss
End ©