↑↓torrent.by
Поиск
Логин: Регистрация
Пароль: Восстановить пароль

Не время умирать / No Time to Die (2021) BDRip 1080p от Generalfilm | iTunes

Скачать ne-vremya-umirat-no-time-to-die-2021-bdrip-1080p-ot-generalfilm-itunes.torrent
U Магнитная ссылка Размер: 11.41 GB Раздают: 76 Качают: 53 Добавлен: 2021-12-18 05:49:44
Не время умирать / No Time to Die (2021) BDRip 1080p от Generalfilm | iTunes

Не время умирать / No Time to Die


Год выпуска: 2021
Страна:  Великобритания, США
Студия: B25, Cinesite, Danjaq, Eon Productions Ltd., Metro-Goldwyn-Mayer (MGM), Universal Pictures

Жанр: Боевик, триллер, приключения
Перевод: Дублированный [iTunes]
Продолжительность: 02:43:33
Субтитры: русские (Forced)
Режиссер: Кэри Дзёдзи Фукунага

В ролях:
Дэниэл Крэйг, Леа Сейду, Рами Малек, Лашана Линч, Рэйф Файнс, Бен Уишоу, Наоми Харрис, Рори Киннер, Джеффри Райт, Билли Магнуссен, Кристоф Вальц, Давид Денсик, Ана де Армас, Дали Бенссалах, Лиза-Дора Соннет

О фильме: Оставив службу, Бонд наслаждается красивой жизнью со своей возлюбленной Мадлен Суонн и пытается навсегда распрощаться с прошлым. Однако покою быстро приходит конец, когда прошлое настигает героя в лице его заклятых врагов. Старинный друг Бонда из ЦРУ Феликс Лейтер просит бывшего агента 007 разыскать похищенного ученого Валдо Обручева, участвовавшего в секретной разработке наноботов — смертельного вируса, который проникает в кожу человека и способен убивать при малейшем контакте с зараженным. Бонду предстоит раскрыть таинственного злодея, в чьих руках вирус оказывается оружием массового поражения, и спасти тех, кто ему дорог.

Качество: BDRip 1080p
Формат: MKV
Видео: MPEG-4 AVC, 1920x800 (2.40:1), 23.976 fps, 9 600 kb/s (0.261 bit/pixel)
Аудио:русский, AC3, 48.0 kHz, 6 ch, 384 kb/s iTunes
Навигация по главам: есть

Релиз:
[+] ОтчетМедиаИнфо

General
Unique ID                                : 182683107765557909665969719366442087205 (0x896F7C9C2B1CF56480D143E4E67CF325)
Complete name                            : D:No.Time.to.Die.2021.BDRip-1080p.Rip.by.White Smoke.R.G.Generalfilm.mkv
Format                                   : Matroska
Format version                           : Version 4
File size                                : 11.4 GiB
Duration                                 : 2 h 43 min
Overall bit rate                         : 9 986 kb/s
Movie name                               : No.Time.to.Die.2021.BDRip-1080p.Rip.by.White Smoke.R.G.Generalfilm.mkv
Encoded date                             : UTC 2021-12-16 02:06:38
Writing application                      : mkvmerge v6.8.0 ('Theme for Great Cities') 64bit built on Mar  2 2014 21:34:26
Writing library                          : libebml v1.3.0 + libmatroska v1.4.1
Cover                                    : Yes
Attachments                              : cover.png

Video
ID                                       : 1
Format                                   : AVC
Format/Info                              : Advanced Video Codec
Format profile                           : High@L4.1
Format settings                          : CABAC / 4 Ref Frames
Format settings, CABAC                   : Yes
Format settings, Reference frames        : 4 frames
Codec ID                                 : V_MPEG4/ISO/AVC
Duration                                 : 2 h 43 min
Bit rate                                 : 9 600 kb/s
Width                                    : 1 920 pixels
Height                                   : 800 pixels
Display aspect ratio                     : 2.40:1
Frame rate mode                          : Constant
Frame rate                               : 23.976 FPS
Color space                              : YUV
Chroma subsampling                       : 4:2:0
Bit depth                                : 8 bits
Scan type                                : Progressive
Bits/(Pixel*Frame)                       : 0.261
Stream size                              : 10.7 GiB (94%)
Writing library                          : x264 core 130 r2273 b3065e6
Encoding settings                        : cabac=1 / ref=4 / deblock=1:-2:-1 / analyse=0x3:0x133 / me=umh / subme=10 / psy=1 / psy_rd=1.00:0.15 / mixed_ref=1 / me_range=32 / chroma_me=1 / trellis=2 / 8x8dct=1 / cqm=0 / deadzone=21,11 / fast_pskip=0 / chroma_qp_offset=-3 / threads=48 / lookahead_threads=6 / sliced_threads=0 / nr=0 / decimate=1 / interlaced=0 / bluray_compat=0 / constrained_intra=0 / bframes=9 / b_pyramid=2 / b_adapt=2 / b_bias=0 / direct=1 / weightb=1 / open_gop=0 / weightp=2 / keyint=240 / keyint_min=23 / scenecut=40 / intra_refresh=0 / rc=2pass / mbtree=0 / bitrate=9600 / ratetol=1.0 / qcomp=0.60 / qpmin=0 / qpmax=69 / qpstep=4 / cplxblur=20.0 / qblur=0.5 / ip_ratio=1.40 / pb_ratio=1.30 / aq=2:1.00
Language                                 : English
Default                                  : Yes
Forced                                   : No
Color range                              : Limited
Color primaries                          : BT.709
Transfer characteristics                 : BT.709
Matrix coefficients                      : BT.709

Audio
ID                                       : 2
Format                                   : AC-3
Format/Info                              : Audio Coding 3
Commercial name                          : Dolby Digital
Codec ID                                 : A_AC3
Duration                                 : 2 h 43 min
Bit rate mode                            : Constant
Bit rate                                 : 384 kb/s
Channel(s)                               : 6 channels
Channel layout                           : L R C LFE Ls Rs
Sampling rate                            : 48.0 kHz
Frame rate                               : 31.250 FPS (1536 SPF)
Compression mode                         : Lossy
Stream size                              : 449 MiB (4%)
Title                                    : iTunes
Language                                 : Russian
Service kind                             : Complete Main
Default                                  : Yes
Forced                                   : Yes

Text
ID                                       : 3
Format                                   : UTF-8
Codec ID                                 : S_TEXT/UTF8
Codec ID/Info                            : UTF-8 Plain Text
Title                                    : Forced
Language                                 : Russian
Default                                  : Yes
Forced                                   : Yes

Menu
00:00:00.000                             : en:Chapter 01
00:06:51.536                             : en:Chapter 02
00:11:57.091                             : en:Chapter 03
00:18:07.003                             : en:Chapter 04
00:27:09.920                             : en:Chapter 05
00:32:39.249                             : en:Chapter 06
00:43:45.957                             : en:Chapter 07
00:57:43.502                             : en:Chapter 08
01:04:06.259                             : en:Chapter 09
01:13:06.424                             : en:Chapter 10
01:22:28.777                             : en:Chapter 11
01:33:49.249                             : en:Chapter 12
01:41:08.020                             : en:Chapter 13
01:52:37.250                             : en:Chapter 14
01:58:30.478                             : en:Chapter 15
02:05:34.652                             : en:Chapter 16
02:13:54.860                             : en:Chapter 17
02:23:59.297                             : en:Chapter 18
02:29:10.483                             : en:Chapter 19
02:36:51.819                             : en:Chapter 20



Скриншоты:
[+] Всего файлов в раздаче - 1:

Похожие раздачи по запросу - время:
2022-05-09 U Время падения / Fall Time (1995) WEB-DLRip-AVC от DoMiNo | P, P2, А 2.91 GB ↑ 14 ↓ 8
2022-05-06 U Не в том месте, не в то время / Дерзкое ограбление: Выжить любой ценой / Wrong Place, Wrong Time (2021) WEB-DLRip от ELEKTRI4KA | IVI 1.46 GB ↑ 36 ↓ 31
2022-05-06 U Не в том месте, не в то время / Дерзкое ограбление: Выжить любой ценой / Wrong Place, Wrong Time (2021) WEB-DL 1080p от ELEKTRI4KA | IVI 3.76 GB ↑ 41 ↓ 28
2022-04-11 U Время грехов (2008) WEBRip-AVC от Files-x 1.37 GB ↑ 35 ↓ 7
2022-04-10 U Время грехов (2008) WEBRip 1080p 3.93 GB ↑ 24 ↓ 17
2022-03-03 U Любовь сквозь время! / Любовь. Надежда. Астана [01-06 из 06] (2019) WEB-DLRip-AVC от Generalfilm | КПК 1.35 GB ↑ 104 ↓ 26
2022-02-11 U Борис Акунин - История Российского государства 09. После тяжёлой продолжительной болезни. Время Николая II (2021) FB2 25.93 MB ↑ 81 ↓ 31

Отзывы
Зарегистрируйтесь чтобы добавить комментарий.
Торрент клиент
byTorrent - программа для загрузки торрент-файлов.

Скачать byTorrent.exe

Скачать byTorrent.zip

Поддержи torrent.by
российских рублей
(300 российских рублей это 4$)

Обратная связь rss
End ©