↑↓torrent.by
Поиск
Логин: Регистрация
Пароль: Восстановить пароль

Не время умирать / No Time to Die (2021) Hybrid 1080p | D | IMAX | iTunes

Скачать ne-vremya-umirat-no-time-to-die-2021-hybrid-1080p-d-imax-itunes.torrent
U Магнитная ссылка Размер: 6.67 GB Раздают: 81 Качают: 64 Добавлен: 2021-12-21 09:21:35
Не время умирать / No Time to Die (2021) Hybrid 1080p | D | IMAX | iTunes

Название: Не время умирать
Оригинальное название: No Time to Die
Год выхода: 2021
Жанр: боевик, триллер, приключения
Режиссер: Кэри Дзёдзи Фукунага
В ролях: Дэниэл Крэйг, Рами Малек, Леа Сейду, Лашана Линч, Бен Уишоу, Наоми Харрис, Билли Магнуссен, Ана де Армас, Кристоф Вальц, Рэйф Файнс

О фильме:
Джеймс Бонд оставил оперативную службу и наслаждается спокойной жизнью на Ямайке. Все меняется, когда на острове появляется его старый друг Феликс Лейтер из ЦРУ с просьбой о помощи. Миссия по спасению похищенного ученого оказывается опаснее, чем предполагалось изначально. Бонд попадает в ловушку к таинственному злодею, вооруженному опасным технологическим оружием.

Страна: США
Выпущено: Metro-Goldwyn-Mayer (MGM), Eon Productions
Продолжительность: 02:43:24
Перевод: Профессиональный (дублированный) iTunes

Файл
Формат: MKV
Качество: Hybrid 1080p
Видео: AVC/H.264, 1920х1080, 23.976 fps, ~5120 Kbps
Аудио #1: AC3, 6 ch, 384 Kbps - Русский (DUB)
Аудио #2: AC3, 6 ch, 448 Kbps - Английский
Субтитры: русские (форс, полные), английские


[+] MediaInfo
General
Unique ID                   : 248574232363472926574814551548009508765 (0xBB01A7DF4F542BEE675D97919F51EF9D)
Complete name               : D:No Time to Die (2021) IMAX 1080p.mkv
Format                      : Matroska
Format version              : Version 4
File size                   : 6.67 GiB
Duration                    : 2 h 43 min
Overall bit rate            : 5 845 kb/s
Movie name                  : Не время умирать / No Time to Die (2021)
Encoded date                : UTC 2021-12-19 16:33:52
Writing application         : mkvmerge v46.0.0 ('No Deeper Escape') 32-bit
Writing library             : libebml v1.3.10 + libmatroska v1.5.2

Video
ID                          : 1
Format                      : AVC
Format/Info                 : Advanced Video Codec
Format profile              : High@L4
Format settings             : CABAC / 4 Ref Frames
Format settings, CABAC      : Yes
Format settings, Reference  : 4 frames
Codec ID                    : V_MPEG4/ISO/AVC
Duration                    : 2 h 43 min
Bit rate                    : 5 120 kb/s
Width                       : 1 920 pixels
Height                      : 1 080 pixels
Display aspect ratio        : 16:9
Frame rate mode             : Constant
Frame rate                  : 23.976 (24000/1001) FPS
Color space                 : YUV
Chroma subsampling          : 4:2:0
Bit depth                   : 8 bits
Scan type                   : Progressive
Bits/(Pixel*Frame)          : 0.103
Stream size                 : 5.72 GiB (86%)
Writing library             : x264 core 152 r2854 e9a5903
Encoding settings           : cabac=1 / ref=3 / deblock=1:0:0 / analyse=0x3:0x113 / me=hex / subme=7 / psy=1 / psy_rd=1.00:0.00 / mixed_ref=1 / me_range=16 / chroma_me=1 / trellis=1 / 8x8dct=1 / cqm=0 / deadzone=21,11 / fast_pskip=1 / chroma_qp_offset=-2 / threads=34 / lookahead_threads=5 / sliced_threads=0 / nr=0 / decimate=1 / interlaced=0 / bluray_compat=0 / constrained_intra=0 / bframes=6 / b_pyramid=2 / b_adapt=1 / b_bias=0 / direct=1 / weightb=1 / open_gop=0 / weightp=2 / keyint=50 / keyint_min=26 / scenecut=0 / intra_refresh=0 / rc_lookahead=40 / rc=2pass / mbtree=1 / bitrate=5120 / ratetol=1.0 / qcomp=0.60 / qpmin=0 / qpmax=69 / qpstep=4 / cplxblur=20.0 / qblur=0.5 / vbv_maxrate=7680 / vbv_bufsize=20480 / nal_hrd=none / filler=0 / ip_ratio=1.40 / aq=1:1.00
Default                     : Yes
Forced                      : No

Audio #1
ID                          : 2
Format                      : AC-3
Format/Info                 : Audio Coding 3
Commercial name             : Dolby Digital
Codec ID                    : A_AC3
Duration                    : 2 h 43 min
Bit rate mode               : Constant
Bit rate                    : 384 kb/s
Channel(s)                  : 6 channels
Channel layout              : L R C LFE Ls Rs
Sampling rate               : 48.0 kHz
Frame rate                  : 31.250 FPS (1536 SPF)
Compression mode            : Lossy
Stream size                 : 449 MiB (7%)
Title                       : DUB
Language                    : Russian
Service kind                : Complete Main
Default                     : Yes
Forced                      : No

Audio #2
ID                          : 3
Format                      : AC-3
Format/Info                 : Audio Coding 3
Commercial name             : Dolby Digital
Codec ID                    : A_AC3
Duration                    : 2 h 43 min
Bit rate mode               : Constant
Bit rate                    : 448 kb/s
Channel(s)                  : 6 channels
Channel layout              : L R C LFE Ls Rs
Sampling rate               : 48.0 kHz
Frame rate                  : 31.250 FPS (1536 SPF)
Compression mode            : Lossy
Stream size                 : 524 MiB (8%)
Language                    : English
Service kind                : Complete Main
Default                     : No
Forced                      : No

Text #1
ID                          : 4
Format                      : UTF-8
Codec ID                    : S_TEXT/UTF8
Codec ID/Info               : UTF-8 Plain Text
Duration                    : 2 h 41 min
Bit rate                    : 1 b/s
Count of elements           : 42
Stream size                 : 1.61 KiB (0%)
Title                       : forced
Language                    : Russian
Default                     : Yes
Forced                      : No

Text #2
ID                          : 5
Format                      : UTF-8
Codec ID                    : S_TEXT/UTF8
Codec ID/Info               : UTF-8 Plain Text
Duration                    : 2 h 42 min
Bit rate                    : 64 b/s
Count of elements           : 1735
Stream size                 : 76.3 KiB (0%)
Title                       : full
Language                    : Russian
Default                     : No
Forced                      : No

Text #3
ID                          : 6
Format                      : UTF-8
Codec ID                    : S_TEXT/UTF8
Codec ID/Info               : UTF-8 Plain Text
Duration                    : 2 h 35 min
Bit rate                    : 41 b/s
Count of elements           : 1707
Stream size                 : 47.2 KiB (0%)
Language                    : English
Default                     : No
Forced                      : No




Скриншоты:
[+] Всего файлов в раздаче - 1:

Похожие раздачи по запросу - время:
2022-05-09 U Время падения / Fall Time (1995) WEB-DLRip-AVC от DoMiNo | P, P2, А 2.91 GB ↑ 14 ↓ 8
2022-05-06 U Не в том месте, не в то время / Дерзкое ограбление: Выжить любой ценой / Wrong Place, Wrong Time (2021) WEB-DLRip от ELEKTRI4KA | IVI 1.46 GB ↑ 36 ↓ 31
2022-05-06 U Не в том месте, не в то время / Дерзкое ограбление: Выжить любой ценой / Wrong Place, Wrong Time (2021) WEB-DL 1080p от ELEKTRI4KA | IVI 3.76 GB ↑ 41 ↓ 28
2022-04-11 U Время грехов (2008) WEBRip-AVC от Files-x 1.37 GB ↑ 35 ↓ 7
2022-04-10 U Время грехов (2008) WEBRip 1080p 3.93 GB ↑ 24 ↓ 17
2022-03-03 U Любовь сквозь время! / Любовь. Надежда. Астана [01-06 из 06] (2019) WEB-DLRip-AVC от Generalfilm | КПК 1.35 GB ↑ 104 ↓ 26
2022-02-11 U Борис Акунин - История Российского государства 09. После тяжёлой продолжительной болезни. Время Николая II (2021) FB2 25.93 MB ↑ 81 ↓ 31

Отзывы
Зарегистрируйтесь чтобы добавить комментарий.
Торрент клиент
byTorrent - программа для загрузки торрент-файлов.

Скачать byTorrent.exe

Скачать byTorrent.zip

Поддержи torrent.by
российских рублей
(300 российских рублей это 4$)

Обратная связь rss
End ©