↑↓torrent.by
Поиск
Логин: Регистрация
Пароль: Восстановить пароль

Я тебе не верю [01х01-05] (2021) WEBRip 1080p

Скачать ya-tebe-ne-veryu-01h01-05-2021-webrip-1080p.torrent
U Магнитная ссылка Размер: 7.45 GB Раздают: 227 Качают: 329 Добавлен: 2021-12-30 16:43:17
Я тебе не верю [01х01-05] (2021) WEBRip 1080p

Название: Я тебе не верю
Год выхода: 2021
Жанр: ТВ-шоу, юмор
Режиссёр: Константин Лавров
Ведущие: Азамат Мусагалиев, Денис Дорохов

О фильме:
Звёзды будут соревноваться в актёрской игре, демонстрировать стальные нервы и хвастаться своей проницательностью. Цель игры простая: разгадать чужую ложь и сделать так, чтобы не разгадали твою. Если справился — ты победил. Ведущие проекта будут «гонять» звёздных участников по нескольким испытаниям. В рамках челленджей селебрити придётся и рассказывать истории, и пытаться выявить силиконовую грудь среди настоящих, и подсматривать в глазок за абсурдными ситуациями в соседней комнате, и даже по историям зрителей угадывать, что было дальше.

Страна: Россия
Студия: Производство ООО «Комеди Клаб продакшн»
Продолжительность: 5 х ~ 00:45:00
Язык: Русский

Премьера: 01 декабря 2021 года (ТНТ)
Примечание: Без рекламы

Файл
Формат: MKV
Качество: WEBRip 1080p
Видео: MPEG-4 AVC, ~ 4500 Кбит/с, 1920x1080
Звук: AC3, 2 ch, 192 Кбит/с
Субтитры: Отсутствуют
Семпл


[+] MI
Общее
Уникальный идентификатор                 : 319079133691500545163079949018805797920 (0xF00C67E3DB30D4E092E39C15F55B8420)
Полное имя                               : D:Ya.tebe.ne.veryu.S01.2021.WEB-DL.1080pYa.tebe.ne.veryu.S01.E01.2021.WEB-DL.1080p.mkv
Формат                                   : Matroska
Версия формата                           : Version 4
Размер файла                             : 1,52 Гбайт
Продолжительность                        : 46 м. 18 с.
Режим общего битрейта                    : Переменный
Общий поток                              : 4 691 Кбит/сек
Название фильма                          : Ya.tebe.ne.veryu.S01.E01.2021.WEB-DL.1080p
Дата кодирования                         : UTC 2021-12-01 19:09:10
Программа кодирования                    : mkvmerge v63.0.0 ('Everything') 64-bit
Библиотека кодирования                   : libebml v1.4.2 + libmatroska v1.6.4
Attachments                              : poster.jpg

Видео
Идентификатор                            : 1
Формат                                   : AVC
Формат/Информация                        : Advanced Video Codec
Профиль формата                          : High@L4
Настройки формата                        : CABAC / 1 Ref Frames
Параметр CABAC формата                   : Да
Параметр RefFrames формата               : 1 кадр
Параметр GOP формата                     : M=1, N=50
Идентификатор кодека                     : V_MPEG4/ISO/AVC
Продолжительность                        : 46 м. 18 с.
Вид битрейта                             : Переменный
Битрейт                                  : 4 500 Кбит/сек
Ширина                                   : 1 920 пикселей
Высота                                   : 1 072 пикселя
Соотношение сторон                       : 16:9
Режим частоты кадров                     : Постоянный
Частота кадров                           : 25,000 кадров/сек
Цветовое пространство                    : YUV
Субдискретизация насыщенности            : 4:2:0
Битовая глубина                          : 8 бит
Тип развёртки                            : Прогрессивная
Бит/(Пиксели*Кадры)                      : 0.087
Размер потока                            : 1,45 Гбайт (96%)
Default                                  : Да
Forced                                   : Нет

Аудио
Идентификатор                            : 2
Формат                                   : AC-3
Формат/Информация                        : Audio Coding 3
Коммерческое название                    : Dolby Digital
Идентификатор кодека                     : A_AC3
Продолжительность                        : 46 м. 18 с.
Вид битрейта                             : Постоянный
Битрейт                                  : 192 Кбит/сек
Каналы                                   : 2 канала
Channel layout                           : L R
Частота                                  : 48,0 КГц
Частота кадров                           : 31,250 кадров/сек (1536 SPF)
Метод сжатия                             : С потерями
Размер потока                            : 63,6 Мбайт (4%)
Service kind                             : Complete Main
Default                                  : Да
Forced                                   : Нет



Скриншоты:
[+] Всего файлов в раздаче - 5:

Похожие раздачи по запросу - тебе:
2022-03-20 U Джули Моррисон - Авокадо, хлеб, яйцо. 100 простых рецептов, которые помогут тебе стать звездой на кухне (2022) FB2 5.28 MB ↑ 102 ↓ 8
2022-03-19 U Хочу тебе верить [01-04 из 04] (2022) WEB-DLRip-AVC от Files-х 2.39 GB ↑ 121 ↓ 40
2022-03-04 U Я тебе не верю [01х01-12] (2021) WEBRip 1080p 2К17.84 GB ↑ 27 ↓ 121

Отзывы
Зарегистрируйтесь чтобы добавить комментарий.
Торрент клиент
byTorrent - программа для загрузки торрент-файлов.

Скачать byTorrent.exe

Скачать byTorrent.zip

Поддержи torrent.by
российских рублей
(300 российских рублей это 4$)

Обратная связь rss
End ©