↑↓torrent.by
Поиск
Логин: Регистрация
Пароль: Восстановить пароль

Монстры на каникулах: Трансформания / Hotel Transylvania: Transformania (2022) WEB-DLRip-AVC от ExKinoRay | D

Скачать monstry-na-kanikulah-transformaniya-hotel-transylvania-transformania-2022-web-dlrip-avc-ot-exkinoray-d.torrent
U Магнитная ссылка Размер: 1.80 GB Раздают: 174 Качают: 55 Добавлен: 2022-01-16 06:22:56
Монстры на каникулах: Трансформания / Hotel Transylvania: Transformania (2022) WEB-DLRip-AVC от ExKinoRay | D

Монстры на каникулах: Трансформания / Hotel Transylvania: Transformania

Название:  Монстры на каникулах: Трансформания
Оригинальное название:  Hotel Transylvania: Transformania
Год выхода: 2022
Жанр: Мультфильм, ужасы, фэнтези, комедия, приключения, семейный
Режиссер:  Дерек Драймон, Дженнифер Клуска
В ролях:   Брайан Халл, Энди Сэмберг, Селена Гомес, Кэтрин Хан, Стив Бушеми, Дэвид Спейд, Кигэн-Майкл Ки, Эшер Блинкофф, Брэд Эбрелл, Фрэн Дрешер

Описание:   Все смешалось в отеле «Трансильвания»: таинственное изобретение Ван Хельсинга, «монстрифицирующий луч», ломается и случайно превращает Дракулу и его приятелей в людей, а Джонни — наоборот, в монстра. Лишенные своих способностей и привычного облика Драк с друзьями и Джонни, с неожиданным удовольствием раскрывающий свою монстрическую сущность, отправляются в кругосветное путешествие на поиски средства от трансформании. И, конечно, им не обойтись без помощи Мэвис, пока не стало слишком поздно и они не свели друг друга с ума.

Страна:  США
Студия:  Columbia Pictures Corporation, Media Rights Capital, Sony Pictures Animation
Продолжительность:  01:27:31
Перевод:  Дублированный - Amazon Prime Video

Информация о файле:
Кодек: AVC
Формат: MKV
Качество: WEB-DLRip-AVC
Видео: MPEG-4 AVC,  1024x552, 23.976 fps, 2050 kb/s
Аудио RU:  AC3, 6 ch, 48 kHz, 448 kbps  
Аудио EN:  AC3, 6 ch, 48 kHz, 448 kbps  
Субтитры: Русские (Forced, full), украинские (Full), английские


Релиз:  

Автор релиза:


[+] MediaInfo
x264 info: frame I:1059  Avg QP:16.15  size: 87001 [url=/tag/7/][/url]
x264 info: frame P:36022 Avg QP:19.84  size: 20086 [url=/tag/7/][/url]
x264 info: frame B:88838 Avg QP:21.01  size:  5952 [url=/tag/7/][/url]
x264 info: consecutive B-frames:  6.5%  4.9%  9.5% 49.2% 11.3% 11.5%  2.5%  3.0%  0.7%  0.4%  0.4% [url=/tag/7/][/url]
General [url=/tag/7/][/url]
Unique ID                                : 219388258988321598256637684230262548617 (0xA50CA449494623A69E40D73DF66AE889) [url=/tag/7/][/url]
Complete name                            : D:uTorrentРипы wolf1245Hotel Transylvania.Transformania.2022.DUB.Amazon.WEB-DLRip-AVC.[wolf1245.ExKinoRay].mkv [url=/tag/7/][/url]
Format                                   : Matroska [url=/tag/7/][/url]
Format version                           : Version 4 [url=/tag/7/][/url]
File size                                : 1.80 GiB [url=/tag/7/][/url]
Duration                                 : 1 h 27 min [url=/tag/7/][/url]
Overall bit rate                         : 2 947 kb/s [url=/tag/7/][/url]
Movie name                               : Hotel Transylvania.Transformania.2022.DUB.Amazon.WEB-DLRip-AVC.[wolf1245.ExKinoRay] [url=/tag/7/][/url]
Encoded date                             : UTC 2022-01-15 17:02:40 [url=/tag/7/][/url]
Writing application                      : mkvmerge v64.0.0 ('Willows') 64-bit [url=/tag/7/][/url]
Writing library                          : libebml v1.4.2 + libmatroska v1.6.4 [url=/tag/7/][/url]
[url=/tag/7/][/url]
Video [url=/tag/7/][/url]
ID                                       : 1 [url=/tag/7/][/url]
Format                                   : AVC [url=/tag/7/][/url]
Format/Info                              : Advanced Video Codec [url=/tag/7/][/url]
Format profile                           : High@L4.1 [url=/tag/7/][/url]
Format settings                          : CABAC / 10 Ref Frames [url=/tag/7/][/url]
Format settings, CABAC                   : Yes [url=/tag/7/][/url]
Format settings, Reference frames        : 10 frames [url=/tag/7/][/url]
Codec ID                                 : V_MPEG4/ISO/AVC [url=/tag/7/][/url]
Duration                                 : 1 h 27 min [url=/tag/7/][/url]
Bit rate                                 : 2 050 kb/s [url=/tag/7/][/url]
Width                                    : 1 024 pixels [url=/tag/7/][/url]
Height                                   : 552 pixels [url=/tag/7/][/url]
Display aspect ratio                     : 1.85:1 [url=/tag/7/][/url]
Frame rate mode                          : Constant [url=/tag/7/][/url]
Frame rate                               : 23.976 (24000/1001) FPS [url=/tag/7/][/url]
Color space                              : YUV [url=/tag/7/][/url]
Chroma subsampling                       : 4:2:0 [url=/tag/7/][/url]
Bit depth                                : 8 bits [url=/tag/7/][/url]
Scan type                                : Progressive [url=/tag/7/][/url]
Bits/(Pixel*Frame)                       : 0.151 [url=/tag/7/][/url]
Stream size                              : 1.25 GiB (70%) [url=/tag/7/][/url]
Title                                    : -=[wolf1245.ExKinoRay]=- [url=/tag/7/][/url]
Writing library                          : x264 core 163 r3060 5db6aa6 [url=/tag/7/][/url]
Encoding settings                        : cabac=1 / ref=10 / deblock=1:-3:-2 / analyse=0x3:0x133 / me=umh / subme=10 / psy=1 / psy_rd=1.05:0.10 / mixed_ref=1 / me_range=32 / chroma_me=1 / trellis=2 / 8x8dct=1 / cqm=0 / deadzone=21,11 / fast_pskip=1 / chroma_qp_offset=-3 / threads=10 / lookahead_threads=2 / sliced_threads=0 / nr=0 / decimate=0 / interlaced=0 / bluray_compat=0 / constrained_intra=0 / bframes=10 / b_pyramid=2 / b_adapt=2 / b_bias=0 / direct=3 / weightb=1 / open_gop=0 / weightp=2 / keyint=240 / keyint_min=24 / scenecut=40 / intra_refresh=0 / rc_lookahead=100 / rc=2pass / mbtree=0 / bitrate=2050 / ratetol=1.0 / qcomp=0.60 / qpmin=0 / qpmax=69 / qpstep=4 / cplxblur=20.0 / qblur=0.5 / vbv_maxrate=50000 / vbv_bufsize=62500 / nal_hrd=none / filler=0 / ip_ratio=1.40 / pb_ratio=1.30 / aq=3:0.80 [url=/tag/7/][/url]
Language                                 : English [url=/tag/7/][/url]
Default                                  : Yes [url=/tag/7/][/url]
Forced                                   : No [url=/tag/7/][/url]
Color range                              : Limited [url=/tag/7/][/url]
Color primaries                          : BT.709 [url=/tag/7/][/url]
Transfer characteristics                 : BT.709 [url=/tag/7/][/url]
Matrix coefficients                      : BT.709 [url=/tag/7/][/url]
[url=/tag/7/][/url]
Audio #1 [url=/tag/7/][/url]
ID                                       : 2 [url=/tag/7/][/url]
Format                                   : AC-3 [url=/tag/7/][/url]
Format/Info                              : Audio Coding 3 [url=/tag/7/][/url]
Commercial name                          : Dolby Digital [url=/tag/7/][/url]
Codec ID                                 : A_AC3 [url=/tag/7/][/url]
Duration                                 : 1 h 27 min [url=/tag/7/][/url]
Bit rate mode                            : Constant [url=/tag/7/][/url]
Bit rate                                 : 448 kb/s [url=/tag/7/][/url]
Channel(s)                               : 6 channels [url=/tag/7/][/url]
Channel layout                           : L R C LFE Ls Rs [url=/tag/7/][/url]
Sampling rate                            : 48.0 kHz [url=/tag/7/][/url]
Frame rate                               : 31.250 FPS (1536 SPF) [url=/tag/7/][/url]
Compression mode                         : Lossy [url=/tag/7/][/url]
Stream size                              : 280 MiB (15%) [url=/tag/7/][/url]
Title                                    : DUB | Amazon Prime Video | RUS [url=/tag/7/][/url]
Language                                 : Russian [url=/tag/7/][/url]
Service kind                             : Complete Main [url=/tag/7/][/url]
Default                                  : Yes [url=/tag/7/][/url]
Forced                                   : No [url=/tag/7/][/url]
[url=/tag/7/][/url]
Audio #2 [url=/tag/7/][/url]
ID                                       : 3 [url=/tag/7/][/url]
Format                                   : AC-3 [url=/tag/7/][/url]
Format/Info                              : Audio Coding 3 [url=/tag/7/][/url]
Commercial name                          : Dolby Digital [url=/tag/7/][/url]
Codec ID                                 : A_AC3 [url=/tag/7/][/url]
Duration                                 : 1 h 27 min [url=/tag/7/][/url]
Bit rate mode                            : Constant [url=/tag/7/][/url]
Bit rate                                 : 448 kb/s [url=/tag/7/][/url]
Channel(s)                               : 6 channels [url=/tag/7/][/url]
Channel layout                           : L R C LFE Ls Rs [url=/tag/7/][/url]
Sampling rate                            : 48.0 kHz [url=/tag/7/][/url]
Frame rate                               : 31.250 FPS (1536 SPF) [url=/tag/7/][/url]
Compression mode                         : Lossy [url=/tag/7/][/url]
Stream size                              : 280 MiB (15%) [url=/tag/7/][/url]
Title                                    : Original | ENG [url=/tag/7/][/url]
Language                                 : English [url=/tag/7/][/url]
Service kind                             : Complete Main [url=/tag/7/][/url]
Default                                  : Yes [url=/tag/7/][/url]
Forced                                   : No [url=/tag/7/][/url]
[url=/tag/7/][/url]
Text #1 [url=/tag/7/][/url]
ID                                       : 4 [url=/tag/7/][/url]
Format                                   : UTF-8 [url=/tag/7/][/url]
Codec ID                                 : S_TEXT/UTF8 [url=/tag/7/][/url]
Codec ID/Info                            : UTF-8 Plain Text [url=/tag/7/][/url]
Duration                                 : 1 h 25 min [url=/tag/7/][/url]
Bit rate                                 : 1 b/s [url=/tag/7/][/url]
Count of elements                        : 20 [url=/tag/7/][/url]
Stream size                              : 787 Bytes (0%) [url=/tag/7/][/url]
Title                                    : Forced [url=/tag/7/][/url]
Language                                 : Russian [url=/tag/7/][/url]
Default                                  : Yes [url=/tag/7/][/url]
Forced                                   : Yes [url=/tag/7/][/url]
[url=/tag/7/][/url]
Text #2 [url=/tag/7/][/url]
ID                                       : 5 [url=/tag/7/][/url]
Format                                   : UTF-8 [url=/tag/7/][/url]
Codec ID                                 : S_TEXT/UTF8 [url=/tag/7/][/url]
Codec ID/Info                            : UTF-8 Plain Text [url=/tag/7/][/url]
Duration                                 : 1 h 26 min [url=/tag/7/][/url]
Bit rate                                 : 74 b/s [url=/tag/7/][/url]
Count of elements                        : 1030 [url=/tag/7/][/url]
Stream size                              : 47.4 KiB (0%) [url=/tag/7/][/url]
Title                                    : Full [url=/tag/7/][/url]
Language                                 : Russian [url=/tag/7/][/url]
Default                                  : No [url=/tag/7/][/url]
Forced                                   : No [url=/tag/7/][/url]
[url=/tag/7/][/url]
Text #3 [url=/tag/7/][/url]
ID                                       : 6 [url=/tag/7/][/url]
Format                                   : UTF-8 [url=/tag/7/][/url]
Codec ID                                 : S_TEXT/UTF8 [url=/tag/7/][/url]
Codec ID/Info                            : UTF-8 Plain Text [url=/tag/7/][/url]
Duration                                 : 1 h 26 min [url=/tag/7/][/url]
Bit rate                                 : 73 b/s [url=/tag/7/][/url]
Count of elements                        : 1029 [url=/tag/7/][/url]
Stream size                              : 46.7 KiB (0%) [url=/tag/7/][/url]
Title                                    : Full [url=/tag/7/][/url]
Language                                 : Ukrainian [url=/tag/7/][/url]
Default                                  : No [url=/tag/7/][/url]
Forced                                   : No [url=/tag/7/][/url]
[url=/tag/7/][/url]
Text #4 [url=/tag/7/][/url]
ID                                       : 7 [url=/tag/7/][/url]
Format                                   : UTF-8 [url=/tag/7/][/url]
Codec ID                                 : S_TEXT/UTF8 [url=/tag/7/][/url]
Codec ID/Info                            : UTF-8 Plain Text [url=/tag/7/][/url]
Duration                                 : 1 h 27 min [url=/tag/7/][/url]
Bit rate                                 : 61 b/s [url=/tag/7/][/url]
Count of elements                        : 1749 [url=/tag/7/][/url]
Stream size                              : 39.1 KiB (0%) [url=/tag/7/][/url]
Title                                    : Full [url=/tag/7/][/url]
Language                                 : English [url=/tag/7/][/url]
Default                                  : No [url=/tag/7/][/url]
Forced                                   : No [url=/tag/7/][/url]
[url=/tag/7/][/url]
Text #5 [url=/tag/7/][/url]
ID                                       : 8 [url=/tag/7/][/url]
Format                                   : UTF-8 [url=/tag/7/][/url]
Codec ID                                 : S_TEXT/UTF8 [url=/tag/7/][/url]
Codec ID/Info                            : UTF-8 Plain Text [url=/tag/7/][/url]
Duration                                 : 1 h 27 min [url=/tag/7/][/url]
Bit rate                                 : 68 b/s [url=/tag/7/][/url]
Count of elements                        : 1878 [url=/tag/7/][/url]
Stream size                              : 43.6 KiB (0%) [url=/tag/7/][/url]
Title                                    : SDH [url=/tag/7/][/url]
Language                                 : English [url=/tag/7/][/url]
Default                                  : No [url=/tag/7/][/url]
Forced                                   : No [url=/tag/7/][/url]
[url=/tag/7/][/url]
Menu [url=/tag/7/][/url]
00:00:00.000                             : :Amazon Original [url=/tag/7/][/url]
00:00:06.000                             : :Studio Logo [url=/tag/7/][/url]
00:00:39.000                             : :Scene 3 [url=/tag/7/][/url]
00:06:19.000                             : :Scene 4 [url=/tag/7/][/url]
00:09:44.000                             : :Scene 5 [url=/tag/7/][/url]
00:15:49.000                             : :Scene 6 [url=/tag/7/][/url]
00:18:10.000                             : :Scene 7 [url=/tag/7/][/url]
00:22:49.000                             : :Scene 8 [url=/tag/7/][/url]
00:26:39.000                             : :Scene 9 [url=/tag/7/][/url]
00:28:54.000                             : :Scene 10 [url=/tag/7/][/url]
00:31:21.000                             : :Scene 11 [url=/tag/7/][/url]
00:33:01.000                             : :Scene 12 [url=/tag/7/][/url]
00:34:11.000                             : :Scene 13 [url=/tag/7/][/url]
00:36:28.000                             : :Scene 14 [url=/tag/7/][/url]
00:37:07.000                             : :Scene 15 [url=/tag/7/][/url]
00:38:13.000                             : :Scene 16 [url=/tag/7/][/url]
00:40:54.000                             : :Scene 17 [url=/tag/7/][/url]
00:45:33.000                             : :Scene 18 [url=/tag/7/][/url]
00:47:15.000                             : :Scene 19 [url=/tag/7/][/url]
00:48:32.000                             : :Scene 20 [url=/tag/7/][/url]
00:51:44.000                             : :Scene 21 [url=/tag/7/][/url]
00:57:04.000                             : :Scene 22 [url=/tag/7/][/url]
01:05:33.000                             : :Scene 23 [url=/tag/7/][/url]
01:13:43.000                             : :Scene 24 [url=/tag/7/][/url]
01:17:02.000                             : :Scene 25 [url=/tag/7/][/url]
01:17:48.000                             : :End Credits [url=/tag/7/][/url]
[url=/tag/7/][/url]



Скриншоты:
[+] Всего файлов в раздаче - 1:

Похожие раздачи по запросу - монстры:
2022-04-07 U Мы — монстры 2 / Monster Family 2 (2021) BDRip 1080p от ELEKTRI4KA | iTunes 8.15 GB ↑ 24 ↓ 25
2022-04-07 U Мы — монстры 2 / Monster Family 2 (2021) BDRip от ELEKTRI4KA | iTunes 1.46 GB ↑ 63 ↓ 69
2022-03-21 U Краковские монстры / Krakowskie potwory [S01] (2022) WEB-DL 1080p | Netflix 21.17 GB ↑ 26 ↓ 69
2022-02-28 U Мы - монстры 2 / Monster Family 2 (2021) WEB-DLRip-AVC | iTunes 1.89 GB ↑ 222 ↓ 21
2022-02-28 U Мы - монстры 2 / Monster Family 2 (2021) WEB-DL 1080p от New-Team | IVI 5.82 GB ↑ 71 ↓ 24
2022-02-28 U Мы — монстры 2 / Monster Family 2 (2021) WEB-DLRip от MegaPeer | iTunes 1.46 GB ↑ 56 ↓ 13
2022-01-15 U Монстры на каникулах: Трансформания / Hotel Transylvania: Transformania (2022) WEB-DLRip-AVC | D 737.96 MB ↑ 199 ↓ 19

Отзывы
Зарегистрируйтесь чтобы добавить комментарий.
Торрент клиент
byTorrent - программа для загрузки торрент-файлов.

Скачать byTorrent.exe

Скачать byTorrent.zip

Поддержи torrent.by
российских рублей
(300 российских рублей это 4$)

Обратная связь rss
End ©