↑↓torrent.by
Поиск
Логин: Регистрация
Пароль: Восстановить пароль

Плюшевый Бум! (2021) WEB-DL 1080p от ELEKTRI4KA | КиноПоиск HD

Скачать plyushevyy-bum-2021-web-dl-1080p-ot-elektri4ka-kinopoisk-hd.torrent
U Магнитная ссылка Размер: 3.42 GB Раздают: 91 Качают: 24 Добавлен: 2022-01-19 07:22:09
Плюшевый Бум! (2021) WEB-DL 1080p от ELEKTRI4KA | КиноПоиск HD

Название: Плюшевый Бум!
Оригинальное название: Плюшевый Бум!
Год выхода: 2021
Жанр: мультфильм, фэнтези, приключения, комедия, полнометражный
Режиссер: Денис Чернов, Илья Куприянов
В ролях: Михаил Хрусталёв, Ксения Бржезовская, Александра Борисова, Елена Шульман, Владимир Маслаков, Светлана Кузнецова, Марианна Мокшина, Валерий Соловьёв, Олег Куликович

О фильме:
Вор экстра-класса Макс похищает уникальный рубин, который собирается вывезти из страны. Для этого он прячет драгоценность внутри плюшевого мишки по имени Бум — популярной детской игрушки. Но всё идёт не по плану, когда мишка по ошибке попадает в магазин игрушек, а рубин оказывается магическим и оживляет всех его обитателей. Максу предстоит найти Бума и вернуть рубин. Охота начинается!

Выпущено: Россия / Группа Компаний «Рики», Студия Анимации «Петербург»
Продолжительность: 01:11:26
Озвучивание: Оригинальное | КиноПоиск HD

Файл
Формат: MKV
Качество: WEB-DL 1080p
Видео: MPEG-4 AVC, 6000 Кb/s, 1920x804
Аудио: Russian: AC3, 448 Kb/s (6 ch) / E-AC3, 448 Kb/s (6 ch)
Субтитры: Нет
Дополнительно: Нет

Релиз: &


[+] Инфо-файл:
Complete name                            : Plyushevyiy.Bum.2021.KP.WEB-DL.1080p.ELEKTRI4KA.UNIONGANG.mkv
Format                                   : Matroska
Format version                           : Version 4
File size                                : 3.42 GiB
Duration                                 : 1 h 11 min
Overall bit rate                         : 6 855 kb/s
Movie name                               : Plyushevyiy.Bum.2021.KP.WEB-DL.1080p.ELEKTRI4KA.UNIONGANG.
Encoded date                             : UTC 2022-01-18 19:12:29
Writing application                      : mkvmerge v63.0.0 ('Everything') 32-bit
Writing library                          : libebml v1.4.2 + libmatroska v1.6.4

Video
ID                                       : 1
Format                                   : AVC
Format/Info                              : Advanced Video Codec
Format profile                           : High@L4
Format settings                          : CABAC / 5 Ref Frames
Format settings, CABAC                   : Yes
Format settings, Reference frames        : 5 frames
Codec ID                                 : V_MPEG4/ISO/AVC
Duration                                 : 1 h 11 min
Bit rate                                 : 6 000 kb/s
Width                                    : 1 920 pixels
Height                                   : 804 pixels
Display aspect ratio                     : 2.40:1
Frame rate mode                          : Constant
Frame rate                               : 24.000 FPS
Color space                              : YUV
Chroma subsampling                       : 4:2:0
Bit depth                                : 8 bits
Scan type                                : Progressive
Bits/(Pixel*Frame)                       : 0.162
Stream size                              : 2.97 GiB (87%)
Writing library                          : x264 core 157
Encoding settings                        : cabac=1 / ref=5 / deblock=1:0:0 / analyse=0x3:0x133 / me=umh / subme=10 / psy=1 / psy_rd=1.00:0.00 / mixed_ref=1 / me_range=24 / chroma_me=1 / trellis=2 / 8x8dct=1 / cqm=0 / deadzone=21,11 / fast_pskip=1 / chroma_qp_offset=-2 / threads=25 / lookahead_threads=4 / sliced_threads=0 / nr=0 / decimate=1 / interlaced=0 / bluray_compat=0 / constrained_intra=0 / bframes=8 / b_pyramid=2 / b_adapt=2 / b_bias=0 / direct=3 / weightb=1 / open_gop=0 / weightp=2 / keyint=192 / keyint_min=96 / scenecut=40 / intra_refresh=0 / rc_lookahead=60 / rc=2pass / mbtree=1 / bitrate=6000 / ratetol=1.0 / qcomp=0.60 / qpmin=0 / qpmax=69 / qpstep=4 / cplxblur=20.0 / qblur=0.5 / vbv_maxrate=6600 / vbv_bufsize=9000 / nal_hrd=none / filler=0 / ip_ratio=1.40 / aq=1:1.00
Default                                  : Yes
Forced                                   : No

Audio #1
ID                                       : 2
Format                                   : AC-3
Format/Info                              : Audio Coding 3
Commercial name                          : Dolby Digital
Codec ID                                 : A_AC3
Duration                                 : 1 h 11 min
Bit rate mode                            : Constant
Bit rate                                 : 448 kb/s
Channel(s)                               : 6 channels
Channel layout                           : L R C LFE Ls Rs
Sampling rate                            : 48.0 kHz
Frame rate                               : 31.250 FPS (1536 SPF)
Compression mode                         : Lossy
Stream size                              : 229 MiB (7%)
Title                                    : Original AC3 (KinoPoisk HD)
Language                                 : Russian
Service kind                             : Complete Main
Default                                  : Yes
Forced                                   : Yes

Audio #2
ID                                       : 3
Format                                   : E-AC-3
Format/Info                              : Enhanced AC-3
Commercial name                          : Dolby Digital Plus
Codec ID                                 : A_EAC3
Duration                                 : 1 h 11 min
Bit rate mode                            : Constant
Bit rate                                 : 448 kb/s
Channel(s)                               : 6 channels
Channel layout                           : L R C LFE Ls Rs
Sampling rate                            : 48.0 kHz
Frame rate                               : 31.250 FPS (1536 SPF)
Compression mode                         : Lossy
Stream size                              : 229 MiB (7%)
Title                                    : Original E-AC3 (KinoPoisk HD)
Language                                 : Russian
Service kind                             : Complete Main
Default                                  : No
Forced                                   : No



Скриншоты:
[+] Всего файлов в раздаче - 1:

Похожие раздачи по запросу - плюшевый:
2022-01-19 U Плюшевый Бум! (2021) WEB-DLRip от ELEKTRI4KA | КиноПоиск HD 1.09 GB ↑ 66 ↓ 19

Отзывы
Зарегистрируйтесь чтобы добавить комментарий.
Торрент клиент
byTorrent - программа для загрузки торрент-файлов.

Скачать byTorrent.exe

Скачать byTorrent.zip

Поддержи torrent.by
российских рублей
(300 российских рублей это 4$)

Обратная связь rss
End ©