↑↓torrent.by
Поиск
Логин: Регистрация
Пароль: Восстановить пароль

Начальник Чукотки (1966) DVDRip от New-Team

Скачать nachalnik-chukotki-1966-dvdrip-ot-new-team.torrent
U Магнитная ссылка Размер: 1.46 GB Раздают: 27 Качают: 11 Добавлен: 2022-01-19 16:45:27
Начальник Чукотки (1966) DVDRip от New-Team

Страна: СССР
Производство: Ленфильм

Жанр:  драма, комедия, приключения, история
Год выпуска: 1966
Продолжительность: 01:26:08

Перевод: не требуется
Оригинальная аудиодорожка: русский
Cубтитры: нет

Режиссер: Виталий Мельников

В ролях:
Михаил Кононов, Алексей Грибов, Геннадий Данзанов, Николай Волков, Павел Винник, Степан Крылов, Тито Ромалио, Иосиф Конопатский, Алексей Кожевников, Константин Абашевский, Павел Панков, Анатолий Королькевич, Анатолий Абрамов, Александр Захаров, Николай Кузьмин, Лим Су, Михаил Васильев...
Полный список актёров

Описание:
1922 год. Молодой ревкомовский писарь Алексей Бычков и комиссар Алексей Михайлович Глазков едут из бухты Вознесения в Уйгунан (Чукотка). По дороге Глазков умирает от тифа. По приезду Уйгунан Алексея встречает бывший царский таможенник Храмов. В сложившейся ситуации Алексей назначает себя начальником Чукотки. Он раздаёт голодающим чукчам запасы со склада американского промышленника Стенсона. Храмов препятствует этому и Алексей его арестовывает.
Весной с началом навигации на Чукотку для обмена пушнины начинают прибывать коммерческие корабли разных стран. Алексей требует от Стенсона перестать спаивать чукчей. Он также устанавливает 40 % пошлину на пушнину, следит за тем, чтобы купцы не обманывали чукчей. В итоге собирает миллион долларов пошлины.
Купцы подговаривают контрреволюционное правительство «Свободной Чукотки» избавиться от Алексея. Правительство в полном составе нападает на посёлок. Чукчи отказываются стрелять в людей и Алексею приходится бежать на лодке через Берингов пролив на Аляску...

Исходник: DVD5 R5
Тип релиза: DVDRip
Контейнер: AVI

Видео: 704x320 (2,2:1), 25,000 кадров/сек, XviD 73 ~ 1964 кбит/сек, 0.349 бит/пиксель
Аудио: 48 кГц, Dolby Digital AC3 5.1, 448 кбит/сек

Раздача от:


[+] MediaInfo

Общее
Полное имя                               : Начальник ЧукоткиNachalnik.Chukotki.1966.DVDRip_[Youtracker]_by_AVP Studio.avi
Формат                                   : AVI
Формат/Информация                        : Audio Video Interleave
Размер файла                             : 1,46 Гбайт
Продолжительность                        : 1 ч. 26 м.
Общий поток                              : 2421 Кбит/сек
Программа кодирования                    : VirtualDubModRus 1.5.10.2 (build 2542/release)
Библиотека кодирования                   : VirtualDubMod build 2542/release

Видео
Идентификатор                            : 0
Формат                                   : MPEG-4 Visual
Профиль формата                          : Advanced Simple@L5
Параметр BVOP формата                    : 1
Параметр QPel формата                    : Нет
Параметр GMC формата                     : Без точки перехода
Параметр матрицы формата                 : Выборочная
Идентификатор кодека                     : XVID
Идентификатор кодека/Подсказка           : XviD
Продолжительность                        : 1 ч. 26 м.
Битрейт                                  : 1964 Кбит/сек
Ширина                                   : 704 пикселя
Высота                                   : 320 пикселей
Соотношение сторон                       : 2,2:1
Частота кадров                           : 25,000 кадров/сек
Цветовое пространство                    : YUV
Субдискретизация насыщенности            : 4:2:0
Битовая глубина                          : 8 бит
Тип развёртки                            : Прогрессивная
Метод сжатия                             : С потерями
Бит/(Пиксели*Кадры)                      : 0.349
Размер потока                            : 1,18 Гбайт (81%)
Библиотека кодирования                   : XviD 65

Аудио
Идентификатор                            : 1
Формат                                   : AC-3
Формат/Информация                        : Audio Coding 3
Расширение режима                        : CM (complete main)
Идентификатор кодека                     : 2000
Продолжительность                        : 1 ч. 26 м.
Вид битрейта                             : Постоянный
Битрейт                                  : 448 Кбит/сек
Каналы                                   : 6 каналов
Расположение каналов                     : Front: L C R, Side: L R, LFE
Частота                                  : 48,0 КГц
Битовая глубина                          : 16 бит
Метод сжатия                             : С потерями
Размер потока                            : 276 Мбайт (19%)
Выравнивание                             : Разделение по промежуткам
Продолжительность промежутка             : 40  мс. (1,00 видеокадр)
Время предзагрузки промежутка            : 500  мс



Скриншоты:
[+] Всего файлов в раздаче - 1:

Похожие раздачи по запросу - начальник:
2022-05-07 U Начальник разведки [01-08 из 08] (2022) WEBRip-AVC от Files-x 5.10 GB ↑ 43 ↓ 17
2022-05-06 U Начальник разведки [01-08 из 08] (2022) WEBRip от Files-x 5.06 GB ↑ 35 ↓ 29
2022-05-05 U Начальник разведки [01-08 из 08] (2022) WEBRip-AVC от Files-x 5.10 GB ↑ 28 ↓ 15
2022-05-04 U Начальник разведки [01-08 из 08] (2022) WEBRip 5.17 GB ↑ 89 ↓ 66
2022-05-04 U Начальник разведки [01-08 из 08] (2022) WEBRip-AVC от Files-x 5.09 GB ↑ 25 ↓ 34
2022-05-04 U Начальник разведки [01-08 из 08] (2022) WEBRip 1080p 10.50 GB ↑ 12 ↓ 19
2022-05-03 U Начальник разведки [01-08 из 08] (2022) HDTVRip от Generalfilm | КПК 1.49 GB ↑ 118 ↓ 55

Отзывы
Зарегистрируйтесь чтобы добавить комментарий.
Торрент клиент
byTorrent - программа для загрузки торрент-файлов.

Скачать byTorrent.exe

Скачать byTorrent.zip

Поддержи torrent.by
российских рублей
(300 российских рублей это 4$)

Обратная связь rss
End ©