↑↓torrent.by
Поиск
Логин: Регистрация
Пароль: Восстановить пароль

Прикосновение (1992) WEB-DLRip-AVC от ExKinoRay

Скачать prikosnovenie-1992-web-dlrip-avc-ot-exkinoray.torrent
U Магнитная ссылка Размер: 2.41 GB Раздают: 177 Качают: 23 Добавлен: 2022-01-19 16:48:02
Прикосновение (1992) WEB-DLRip-AVC от ExKinoRay

Название: Прикосновение
Год выхода: 1992
Жанр:  Ужасы, триллер, драма, детектив
Режиссер: Альберт С. Мкртчян
В ролях: Александр Зуев, Марьяна Полтева, Всеволод Абдулов, Игорь Пушкарев, Александра Харитонова, Андрей Анненский, Николай Аверюшкин, Андрей Дударенко , Сергей Галкин, Рано Хамраева, Анна Константиновская, Василий Кравцов, Елена Метелкина, Вячеслав Шлыков, Андрей Семин, Лариса Виккел, Вадим Вильский, Станислав Житарев

О фильме:
Построенный на мистике, фильм, тем не менее, не дает зрителю повод для сомнений в происходящих событиях. Молодая женщина удушила подушкой собственного пятилетнего сына и, вскрыв себе вены, покончила с собой. Расследование поручают следователю Крутицкому, который быстро приходит к выводу, что здесь дело рук мафии. Но чем глубже герой проникает в это дело, тем больше становится жертв его 'мафиозной версии'. Став причиной смерти своей жены и приемной дочери, он и сам переходит в иной мир.

Страна: Россия
Студия: Киностудия «Транс Ф»
Продолжительность: 01:35:14
Язык: Русский

Файл
Формат: MKV
Качество: WEB-DLRip-AVC
Видео: MPEG-4 AVC, 784x576, 3400 Кбит/с
Аудио:  AC3, 1 ch, 224 Кбит/с
Субтитры: Нет

*** За исходник спасибо filbi1976 (релиз-группа KORSAR)


[+] MI

x264 [info]: frame I:751   Avg QP:19.84  size:106064
x264 [info]: frame P:31777 Avg QP:21.65  size: 39825
x264 [info]: frame B:104615 Avg QP:22.64  size: 10356

Общее
Уникальный идентификатор : 332800243543695595609827164806745270345 (0xFA5EFED6130EEA994FC729F2EE85A849)
Полное имя : D:MOVIESPrikosnovenie.1992.WEB-DLRip-AVC.ExKinoRay.mkv
Формат : Matroska
Версия формата : Version 4
Размер файла : 2,41 Гбайт
Продолжительность : 1 ч. 35 м.
Общий поток : 3 626 Кбит/сек
Дата кодирования : UTC 2022-01-19 04:24:31
Программа кодирования : mkvmerge v48.0.0 ('Fortress Around Your Heart') 64-bit
Библиотека кодирования : libebml v1.4.0 + libmatroska v1.6.0

Видео
Идентификатор : 1
Формат : AVC
Формат/Информация : Advanced Video Codec
Профиль формата : High@L4.1
Настройки формата : CABAC / 16 Ref Frames
Параметр CABAC формата : Да
Параметр RefFrames формата : 16 кадров
Идентификатор кодека : V_MPEG4/ISO/AVC
Продолжительность : 1 ч. 35 м.
Битрейт : 3 400 Кбит/сек
Ширина : 784 пикселя
Высота : 576 пикселей
Соотношение сторон : 4:3
Режим частоты кадров : Постоянный
Частота кадров : 24,000 кадра/сек
Цветовое пространство : YUV
Субдискретизация насыщенности : 4:2:0
Битовая глубина : 8 бит
Тип развёртки : Прогрессивная
Бит/(Пиксели*Кадры) : 0.314
Размер потока : 2,26 Гбайт (94%)
Библиотека кодирования : x264 core 164 r3081 19856cc
Настройки программы : cabac=1 / ref=16 / deblock=1:-2:-2 / analyse=0x3:0x133 / me=umh / subme=10 / psy=1 / psy_rd=1.05:0.14 / mixed_ref=1 / me_range=32 / chroma_me=1 / trellis=2 / 8x8dct=1 / cqm=0 / deadzone=21,11 / fast_pskip=0 / chroma_qp_offset=-3 / threads=6 / lookahead_threads=1 / sliced_threads=0 / nr=0 / decimate=0 / interlaced=0 / bluray_compat=0 / constrained_intra=0 / bframes=16 / b_pyramid=2 / b_adapt=2 / b_bias=0 / direct=3 / weightb=1 / open_gop=0 / weightp=2 / keyint=240 / keyint_min=24 / scenecut=40 / intra_refresh=0 / rc=2pass / mbtree=0 / bitrate=3400 / ratetol=1.0 / qcomp=0.60 / qpmin=0 / qpmax=69 / qpstep=4 / cplxblur=20.0 / qblur=0.5 / ip_ratio=1.40 / pb_ratio=1.30 / aq=1:1.00
Язык : Russian
Default : Да
Forced : Нет
Цветовой диапазон : Limited
Основные цвета : BT.709
Характеристики трансфера : BT.709
Коэффициенты матрицы : BT.709

Аудио
Идентификатор : 2
Формат : AC-3
Формат/Информация : Audio Coding 3
Коммерческое название : Dolby Digital
Идентификатор кодека : A_AC3
Продолжительность : 1 ч. 35 м.
Вид битрейта : Постоянный
Битрейт : 224 Кбит/сек
Каналы : 1 канал
Channel layout : C
Частота : 48,0 КГц
Частота кадров : 31,250 кадров/сек (1536 SPF)
Метод сжатия : С потерями
Размер потока : 153 Мбайт (6%)
Язык : Russian
Service kind : Complete Main
Default : Да
Forced : Нет



Скриншоты:
[+] Всего файлов в раздаче - 1:

Похожие раздачи по запросу - прикосновение:
2022-01-27 U Соблазнительное прикосновение / A Touch of Seduction (2011) IPTVRip | Р2 702.46 MB ↑ 70 ↓ 25
2022-01-17 U Прикосновение (2021) WEB-DLRip от MegaPeer 1.46 GB ↑ 66 ↓ 4

Отзывы
Зарегистрируйтесь чтобы добавить комментарий.
Торрент клиент
byTorrent - программа для загрузки торрент-файлов.

Скачать byTorrent.exe

Скачать byTorrent.zip

Поддержи torrent.by
российских рублей
(300 российских рублей это 4$)

Обратная связь rss
End ©