↑↓torrent.by
Поиск
Логин: Регистрация
Пароль: Восстановить пароль

Матрица: Воскрешение / The Matrix Resurrections (2021) WEB-DL-HEVC 2160p | 4K | HDR | D, P, A

Скачать matrica-voskreshenie-the-matrix-resurrections-2021-web-dl-hevc-2160p-4k-hdr-d-p-a.torrent
U Магнитная ссылка Размер: 22.11 GB Раздают: 89 Качают: 188 Добавлен: 2022-01-20 18:09:22
Матрица: Воскрешение / The Matrix Resurrections (2021) WEB-DL-HEVC 2160p | 4K | HDR | D, P, A

Название: Матрица: Воскрешение
Оригинальное название: The Matrix Resurrections
Год выхода: 2021
Жанр: фантастика, боевик

Режиссер: Лана Вачовски

В ролях: Киану Ривз, Кэрри-Энн Мосс, Яхья Абдул-Матин II, Джонатан Грофф, Джессика Хенвик, Нил Патрик Харрис, Джада Пинкетт Смит, Приянка Чопра Джонас, Кристина Риччи, Ламбер Вильсон

О фильме:
Геймдизайнер Томас Андерсон сделал себе имя работой над трилогией игр «Матрица». Хотя окружающий мир периодически даёт сбои и обнажает свою истинную сущность, бывший Нео исправно посещает психотерапевта, принимает пилюли и практически убедил себя, что всё это — игра его воображения. Но однажды на него выходит хакерша Багз и предлагает снова следовать за белым кроликом.

Страна: США
Студия: NPV Entertainment, Silver Pictures, Village Roadshow Pictures, Warner Bros.
Продолжительность: 02:27:54
Перевод(ы):
#1: Профессиональный (полное дублирование) | Пифагор | Кинопоиск HD
#2: Профессиональный (многоголосый закадровый) | HDRezka studio
#3: Профессиональный (многоголосый закадровый) | Jaskier
#4: Авторский (одноголосый закадровый) | Д. Есарев

Файл
Кодек: H.265
Качество: WEB-DL 2160p
Видео: MPEG-H HEVC HDR Video, 3840x2160 (16:9), 23.976 fps, 17,8 Mb/s, 10 bit
Аудио 1: E-AC3, 48.0 kHz, 6 ch, 448 kb/s |  RUS [DUB, Пифагор | Кинопоиск HD]
Аудио 2: AC3, 48.0 kHz, 6 ch, 448 kb/s |  RUS [DUB, Пифагор | Кинопоиск HD]
Аудио 3: AC3, 48.0 kHz, 6 ch, 448 kb/s |  RUS [MVO, HDRezka Studio]
Аудио 4: AC3, 48.0 kHz, 6 ch, 448 kb/s |  RUS [MVO, Jaskier]
Аудио 5: AC3, 48.0 kHz, 6 ch, 640 kb/s |  RUS [AVO, Д. Есарев]
Аудио 6: AC3, 48.0 kHz, 6 ch, 384 kb/s |  UKR [MVO, HDRezka Studio / DniproFilm]
Аудио 7: E-AC3 JOC, 48.0 kHz, 6 ch, 768 kb/s |  ENG [Оригинал]
Субтитры: Русские (Forced, full, SDH), украинский (Forced), английские (Full, SDH)

Трейлер


[+] MI
Общее
Уникальный идентификатор                 : 204716953713770751373321959332849084986 (0x9A030D16BB52B430AD9769AA58AB6A3A)
Полное имя                               : The.Matrix.Resurrections.(2021).WEB-DL.2160p.HDR.mkv
Формат                                   : Matroska
Версия формата                           : Version 4 / Version 2
Размер файла                             : 22,1 Гбайт
Продолжительность                        : 2 ч. 27 м.
Общий поток                              : 21,4 Мбит/сек
Название фильма                          : The Matrix Resurrections 2021 from seleZen
Дата кодирования                         : UTC 2022-01-20 09:26:59
Программа кодирования                    : mkvmerge v8.3.0 ('Over the Horizon') 64bit
Библиотека кодирования                   : libebml v1.3.1 + libmatroska v1.4.2

Видео
Идентификатор                            : 1
Формат                                   : HEVC
Формат/Информация                        : High Efficiency Video Coding
Профиль формата                          : Main 10@L5@Main
HDR format                               : SMPTE ST 2086, HDR10 compatible
Идентификатор кодека                     : V_MPEGH/ISO/HEVC
Продолжительность                        : 2 ч. 27 м.
Битрейт                                  : 17,8 Мбит/сек
Ширина                                   : 3 840 пикселей
Высота                                   : 2 160 пикселей
Соотношение сторон                       : 16:9
Режим частоты кадров                     : Постоянный
Частота кадров                           : 23,976 (24000/1001) кадра/сек
Цветовое пространство                    : YUV
Субдискретизация насыщенности            : 4:2:0
Битовая глубина                          : 10 бит
Бит/(Пиксели*Кадры)                      : 0.090
Размер потока                            : 18,4 Гбайт (83%)
Библиотека кодирования                   : x265 3.4hy:[Linux][GCC 7.5.0][64 bit] 10bit
Настройки программы                      : cpuid=1111039 / frame-threads=1 / wpp / no-pmode / no-pme / no-psnr / no-ssim / log-level=2 / input-csp=1 / input-res=3840x2160 / interlace=0 / total-frames=0 / level-idc=0 / high-tier=1 / uhd-bd=0 / ref=4 / no-allow-non-conformance / repeat-headers / annexb / no-aud / no-hrd / info / hash=0 / no-temporal-layers / no-open-gop / min-keyint=96 / keyint=96 / gop-lookahead=0 / bframes=3 / b-adapt=2 / b-pyramid / bframe-bias=0 / rc-lookahead=25 / lookahead-slices=4 / scenecut=40 / hist-scenecut=0 / radl=0 / no-splice / no-intra-refresh / ctu=64 / min-cu-size=8 / rect / no-amp / max-tu-size=32 / tu-inter-depth=1 / tu-intra-depth=1 / limit-tu=0 / rdoq-level=2 / dynamic-rd=0.00 / no-ssim-rd / signhide / no-tskip / nr-intra=0 / nr-inter=0 / no-constrained-intra / strong-intra-smoothing / max-merge=3 / limit-refs=3 / limit-modes / me=3 / subme=3 / merange=57 / temporal-mvp / no-frame-dup / no-hme / weightp / no-weightb / no-analyze-src-pics / deblock=0:0 / sao / no-sao-non-deblock / rd=4 / selective-sao=4 / no-early-skip / rskip / no-fast-intra / no-tskip-fast / no-cu-lossless / no-b-intra / no-splitrd-skip / rdpenalty=0 / psy-rd=2.00 / psy-rdoq=1.00 / no-rd-refine / no-lossless / cbqpoffs=0 / crqpoffs=0 / rc=abr / bitrate=18000 / qcomp=0.60 / qpstep=4 / stats-write=0 / stats-read=2 / cplxblur=20.0 / qblur=0.5 / vbv-maxrate=24500 / vbv-bufsize=24500 / vbv-init=0.6 / vbv-end=0.6 / vbv-end-fr-adj=0.0 / ipratio=1.40 / pbratio=1.30 / aq-mode=2 / aq-strength=1.00 / cutree / zone-count=0 / no-strict-cbr / qg-size=32 / no-rc-grain / qpmax=69 / qpmin=0 / no-const-vbv / sar=0 / overscan=0 / videoformat=5 / range=0 / colorprim=9 / transfer=16 / colormatrix=9 / chromaloc=0 / display-window=0 / master-display=G(13250,34500)B(7500,3000)R(34000,16000)WP(15635,16450)L(40000000,50) / cll=1044,648 / min-luma=0 / max-luma=1023 / log2-max-poc-lsb=8 / vui-timing-info / vui-hrd-info / no-concatenation / slices=1 / no-opt-qp-pps / no-opt-ref-list-length-pps / no-multi-pass-opt-rps / scenecut-bias=0.05 / hist-threshold=0.01 / no-opt-cu-delta-qp / no-aq-motion / hdr10 / no-hdr10-opt / no-dhdr10-opt / no-idr-recovery-sei / analysis-reuse-level=0 / analysis-save-reuse-level=0 / analysis-load-reuse-level=0 / scale-factor=0 / refine-intra=0 / refine-inter=0 / refine-mv=1 / refine-ctu-distortion=0 / no-limit-sao / ctu-info=0 / no-lowpass-dct / refine-analysis-type=0 / copy-pic=1 / max-ausize-factor=1.0 / no-dynamic-refine / no-single-sei / no-hevc-aq / no-svt / no-field / qp-adaptation-range=1.00 / no-scenecut-aware-qpconformance-window-offsets / right=0 / bottom=0 / decoder-max-rate=0
Default                                  : Да
Forced                                   : Нет
Цветовой диапазон                        : Limited
Основные цвета                           : BT.2020
Характеристики трансфера                 : PQ
Коэффициенты матрицы                     : BT.2020 non-constant
Mastering display color primaries        : Display P3
Mastering display luminance              : min: 0.0050 cd/m2, max: 4000 cd/m2
Maximum Content Light Level              : 1044 cd/m2
Maximum Frame-Average Light Level        : 648 cd/m2

Аудио #1
Идентификатор                            : 2
Формат                                   : E-AC-3
Формат/Информация                        : Enhanced AC-3
Коммерческое название                    : Dolby Digital Plus
Идентификатор кодека                     : A_EAC3
Продолжительность                        : 2 ч. 27 м.
Вид битрейта                             : Постоянный
Битрейт                                  : 448 Кбит/сек
Каналы                                   : 6 каналов
Channel layout                           : L R C LFE Ls Rs
Частота                                  : 48,0 КГц
Частота кадров                           : 31,250 кадров/сек (1536 SPF)
Метод сжатия                             : С потерями
Размер потока                            : 474 Мбайт (2%)
Заголовок                                : DUB (Пифагор | Кинопоиск HD)
Язык                                     : Russian
Service kind                             : Complete Main
Default                                  : Да
Forced                                   : Нет

Аудио #2
Идентификатор                            : 3
Формат                                   : AC-3
Формат/Информация                        : Audio Coding 3
Коммерческое название                    : Dolby Digital
Идентификатор кодека                     : A_AC3
Продолжительность                        : 2 ч. 27 м.
Вид битрейта                             : Постоянный
Битрейт                                  : 448 Кбит/сек
Каналы                                   : 6 каналов
Channel layout                           : L R C LFE Ls Rs
Частота                                  : 48,0 КГц
Частота кадров                           : 31,250 кадров/сек (1536 SPF)
Метод сжатия                             : С потерями
Размер потока                            : 474 Мбайт (2%)
Заголовок                                : DUB (Пифагор | Кинопоиск HD)
Язык                                     : Russian
Service kind                             : Complete Main
Default                                  : Нет
Forced                                   : Нет

Аудио #3
Идентификатор                            : 4
Формат                                   : AC-3
Формат/Информация                        : Audio Coding 3
Коммерческое название                    : Dolby Digital
Идентификатор кодека                     : A_AC3
Продолжительность                        : 2 ч. 27 м.
Вид битрейта                             : Постоянный
Битрейт                                  : 448 Кбит/сек
Каналы                                   : 6 каналов
Channel layout                           : L R C LFE Ls Rs
Частота                                  : 48,0 КГц
Частота кадров                           : 31,250 кадров/сек (1536 SPF)
Метод сжатия                             : С потерями
Размер потока                            : 474 Мбайт (2%)
Заголовок                                : MVO (HDRezka Studio)
Язык                                     : Russian
Service kind                             : Complete Main
Default                                  : Нет
Forced                                   : Нет

Аудио #4
Идентификатор                            : 5
Формат                                   : AC-3
Формат/Информация                        : Audio Coding 3
Коммерческое название                    : Dolby Digital
Идентификатор кодека                     : A_AC3
Продолжительность                        : 2 ч. 27 м.
Вид битрейта                             : Постоянный
Битрейт                                  : 448 Кбит/сек
Каналы                                   : 6 каналов
Channel layout                           : L R C LFE Ls Rs
Частота                                  : 48,0 КГц
Частота кадров                           : 31,250 кадров/сек (1536 SPF)
Метод сжатия                             : С потерями
Размер потока                            : 474 Мбайт (2%)
Заголовок                                : MVO (Jaskier)
Язык                                     : Russian
Service kind                             : Complete Main
Default                                  : Нет
Forced                                   : Нет

Аудио #5
Идентификатор                            : 6
Формат                                   : AC-3
Формат/Информация                        : Audio Coding 3
Коммерческое название                    : Dolby Digital
Идентификатор кодека                     : A_AC3
Продолжительность                        : 2 ч. 27 м.
Вид битрейта                             : Постоянный
Битрейт                                  : 640 Кбит/сек
Каналы                                   : 6 каналов
Channel layout                           : L R C LFE Ls Rs
Частота                                  : 48,0 КГц
Частота кадров                           : 31,250 кадров/сек (1536 SPF)
Метод сжатия                             : С потерями
Размер потока                            : 677 Мбайт (3%)
Заголовок                                : AVO (Есарев)
Язык                                     : Russian
Service kind                             : Complete Main
Default                                  : Нет
Forced                                   : Нет

Аудио #6
Идентификатор                            : 7
Формат                                   : AC-3
Формат/Информация                        : Audio Coding 3
Коммерческое название                    : Dolby Digital
Идентификатор кодека                     : A_AC3
Продолжительность                        : 2 ч. 27 м.
Вид битрейта                             : Постоянный
Битрейт                                  : 384 Кбит/сек
Каналы                                   : 6 каналов
Channel layout                           : L R C LFE Ls Rs
Частота                                  : 48,0 КГц
Частота кадров                           : 31,250 кадров/сек (1536 SPF)
Метод сжатия                             : С потерями
Размер потока                            : 406 Мбайт (2%)
Заголовок                                : MVO (HDRezka Studio / DniproFilm)
Язык                                     : Ukrainian
Service kind                             : Complete Main
Default                                  : Нет
Forced                                   : Нет

Аудио #7
Идентификатор                            : 8
Формат                                   : E-AC-3 JOC
Формат/Информация                        : Enhanced AC-3 with Joint Object Coding
Коммерческое название                    : Dolby Digital Plus with Dolby Atmos
Идентификатор кодека                     : A_EAC3
Продолжительность                        : 2 ч. 27 м.
Вид битрейта                             : Постоянный
Битрейт                                  : 768 Кбит/сек
Каналы                                   : 6 каналов
Channel layout                           : L R C LFE Ls Rs
Частота                                  : 48,0 КГц
Частота кадров                           : 31,250 кадров/сек (1536 SPF)
Метод сжатия                             : С потерями
Размер потока                            : 813 Мбайт (4%)
Заголовок                                : Original
Язык                                     : English
Service kind                             : Complete Main
Default                                  : Нет
Forced                                   : Нет
Complexity index                         : 16
Number of dynamic objects                : 15
Bed channel count                        : 1 канал
Bed channel configuration                : LFE

Текст #1
Идентификатор                            : 9
Формат                                   : UTF-8
Идентификатор кодека                     : S_TEXT/UTF8
Идентификатор кодека/Информация          : UTF-8 Plain Text
Продолжительность                        : 1 ч. 30 м.
Битрейт                                  : 1 бит/сек
Count of elements                        : 20
Размер потока                            : 994 байт (0%)
Заголовок                                : Forced
Язык                                     : Russian
Default                                  : Да
Forced                                   : Нет

Текст #2
Идентификатор                            : 10
Формат                                   : UTF-8
Идентификатор кодека                     : S_TEXT/UTF8
Идентификатор кодека/Информация          : UTF-8 Plain Text
Продолжительность                        : 2 ч. 27 м.
Битрейт                                  : 81 бит/сек
Count of elements                        : 1798
Размер потока                            : 87,8 Кбайт (0%)
Заголовок                                : Full
Язык                                     : Russian
Default                                  : Нет
Forced                                   : Нет

Текст #3
Идентификатор                            : 11
Формат                                   : UTF-8
Идентификатор кодека                     : S_TEXT/UTF8
Идентификатор кодека/Информация          : UTF-8 Plain Text
Продолжительность                        : 2 ч. 27 м.
Битрейт                                  : 96 бит/сек
Count of elements                        : 2189
Размер потока                            : 104 Кбайт (0%)
Заголовок                                : SDH
Язык                                     : Russian
Default                                  : Нет
Forced                                   : Нет

Текст #4
Идентификатор                            : 12
Формат                                   : UTF-8
Идентификатор кодека                     : S_TEXT/UTF8
Идентификатор кодека/Информация          : UTF-8 Plain Text
Продолжительность                        : 54 м. 7 с.
Битрейт                                  : 2 бит/сек
Count of elements                        : 17
Размер потока                            : 878 байт (0%)
Заголовок                                : Forced
Язык                                     : Ukrainian
Default                                  : Нет
Forced                                   : Нет

Текст #5
Идентификатор                            : 13
Формат                                   : UTF-8
Идентификатор кодека                     : S_TEXT/UTF8
Идентификатор кодека/Информация          : UTF-8 Plain Text
Продолжительность                        : 2 ч. 27 м.
Битрейт                                  : 51 бит/сек
Count of elements                        : 2185
Размер потока                            : 55,7 Кбайт (0%)
Заголовок                                : Full
Язык                                     : English
Default                                  : Нет
Forced                                   : Нет

Текст #6
Идентификатор                            : 14
Формат                                   : UTF-8
Идентификатор кодека                     : S_TEXT/UTF8
Идентификатор кодека/Информация          : UTF-8 Plain Text
Продолжительность                        : 2 ч. 27 м.
Битрейт                                  : 51 бит/сек
Count of elements                        : 2188
Размер потока                            : 55,8 Кбайт (0%)
Заголовок                                : SDH
Язык                                     : English
Default                                  : Нет
Forced                                   : Нет



Скриншоты:
[+] Всего файлов в раздаче - 1:

Похожие раздачи по запросу - матрица:
2022-04-03 U Матрица: Воскрешение / The Matrix Resurrections (2021) BDRip-AV1 1080p от SuperMin | D 2.74 GB ↑ 29 ↓ 12
2022-03-22 U Матрица: Воскрешение / The Matrix Resurrections (2021) WEB-DLRip от New-Team | D | Локализованная версия 2.18 GB ↑ 109 ↓ 24
2022-03-21 U Матрица: Воскрешение / The Matrix Resurrections (2021) WEB-DL 1080p | D | Локализованная версия 8.02 GB ↑ 211 ↓ 16
2022-03-21 U Матрица: Воскрешение / The Matrix Resurrections (2021) WEB-DLRip 720p от DoMiNo | D | Локализованная версия 3.01 GB ↑ 155 ↓ 15
2022-02-26 U Матрица: Воскрешение / The Matrix Resurrections (2021) BDRip-HEVC 1080p | D 8.41 GB ↑ 168 ↓ 62
2022-02-23 U Матрица: Воскрешение / The Matrix Resurrections (2021) BDRemux 1080p от селезень | D, P, A 28.21 GB ↑ 90 ↓ 54
2022-02-22 U Матрица: Воскрешение / The Matrix Resurrections (2021) HDRip-AVC | D 2.21 GB ↑ 52 ↓ 5

Отзывы
Зарегистрируйтесь чтобы добавить комментарий.
Торрент клиент
byTorrent - программа для загрузки торрент-файлов.

Скачать byTorrent.exe

Скачать byTorrent.zip

Поддержи torrent.by
российских рублей
(300 российских рублей это 4$)

Обратная связь rss
End ©