↑↓torrent.by
Поиск
Логин: Регистрация
Пароль: Восстановить пароль

Джон Картер / John Carter (2012) BDRip 1080p | D

Скачать dzhon-karter-john-carter-2012-bdrip-1080p-d.torrent
U Магнитная ссылка Размер: 5.77 GB Раздают: 70 Качают: 25 Добавлен: 2022-02-17 05:14:56
Джон Картер / John Carter (2012) BDRip 1080p | D

Название: Джон Картер
Оригинальное название: John Carter
Год выхода: 2012
Жанр: фантастика, фэнтези, боевик, приключения
Режиссер: Эндрю Стэнтон
В ролях: Тейлор Китч, Линн Коллинз, Саманта Мортон, Уиллем Дефо, Томас Хейден Чёрч, Марк Стронг, Кирен Хайдз, Доминик Уэст, Джеймс Пьюрфой, Брайан Крэнстон

О фильме: Ветеран Гражданской войны в США Джон Картер против своей воли оказывается на Марсе, где попадает в плен к воинственным четырехметровым туземцам. Картеру предстоит не только спастись самому, но и спасти принцессу Дею Торис из Гелиума.

Выпущено: Walt Disney Pictures
Продолжительность: 02:12:02
Перевод: Дублированный

Файл
Кодек: x264
Качество: BDRip (источник: Blu-ray Disc)
Видео: 1920x800 (2,40:1), 23.976 fps, 5170 kbps
Аудио #1: AC-3, 6 ch, 640 kbps (Rus)
Аудио #2: AC-3, 6 ch, 448 kbps (Eng)
Субтитры: Русские (форс,полные), Английские
Скачать: Семпл

Скриншоты


[+] MI
Общее
Уникальный идентификатор         : 184278258277554196070258398667151880116 (0x8AA2B39A32B8528D99BE376C27DDAFB4)
Полное имя                       : John.Carter.2012.BDRip.1080p.Rus.Eng.mkv
Формат                           : Matroska
Версия формата                   : Version 2
Размер файла                     : 5,77 Гбайт
Продолжительность                : 2 ч. 12 м.
Общий поток                      : 6260 Кбит/сек
Название фильма                  : Джон Картер / John Carter (2012)
Дата кодирования                 : UTC 2012-05-26 04:24:13
Программа кодирования            : mkvmerge v5.5.0 ('Healer') built on Apr  6 2012 21:43:24
Библиотека кодирования           : libebml v1.2.3 + libmatroska v1.3.0

Видео
Идентификатор                    : 1
Формат                           : AVC
Формат/Информация                : Advanced Video Codec
Профиль формата                  : High@L4.1
Параметр CABAC формата           : Да
Параметр ReFrames формата        : 5 кадров
Идентификатор кодека             : V_MPEG4/ISO/AVC
Продолжительность                : 2 ч. 12 м.
Битрейт                          : 5170 Кбит/сек
Ширина                           : 1920 пикселей
Высота                           : 800 пикселей
Соотношение сторон               : 2,40:1
Частота кадров                   : 23,976 кадра/сек
Цветовое пространство            : YUV
Субдискретизация насыщенности    : 4:2:0
Битовая глубина                  : 8 бит
Тип развёртки                    : Прогрессивная
Бит/(Пиксели*Кадры)              : 0.140
Размер потока                    : 4,65 Гбайт (81%)
Заголовок                        : Release by AlexKa
Библиотека кодирования           : x264 core 125 r2200 999b753
Настройки программы              : cabac=1 / ref=5 / deblock=1:0:0 / analyse=0x3:0x133 / me=umh / subme=10 / psy=1 / psy_rd=1.00:0.00 / mixed_ref=1 / me_range=32 / chroma_me=1 / trellis=2 / 8x8dct=1 / cqm=0 / deadzone=21,11 / fast_pskip=0 / chroma_qp_offset=-2 / threads=12 / lookahead_threads=2 / sliced_threads=0 / nr=0 / decimate=0 / interlaced=0 / bluray_compat=0 / constrained_intra=0 / bframes=5 / b_pyramid=2 / b_adapt=2 / b_bias=0 / direct=3 / weightb=1 / open_gop=0 / weightp=2 / keyint=240 / keyint_min=23 / scenecut=40 / intra_refresh=0 / rc_lookahead=60 / rc=2pass / mbtree=1 / bitrate=5170 / ratetol=1.0 / qcomp=0.60 / qpmin=0 / qpmax=69 / qpstep=4 / cplxblur=20.0 / qblur=0.5 / ip_ratio=1.40 / aq=1:1.00
Язык                             : English

Аудио #1
Идентификатор                    : 2
Формат                           : AC-3
Формат/Информация                : Audio Coding 3
Расширение режима                : CM (complete main)
Идентификатор кодека             : A_AC3
Продолжительность                : 2 ч. 12 м.
Вид битрейта                     : Постоянный
Битрейт                          : 640 Кбит/сек
Каналы                           : 6 каналов
Расположение каналов             : Front: L C R, Side: L R, LFE
Частота                          : 48,0 КГц
Битовая глубина                  : 16 бит
Метод сжатия                     : С потерями
Размер потока                    : 604 Мбайт (10%)
Заголовок                        : Rus
Язык                             : Russian

Аудио #2
Идентификатор                    : 3
Формат                           : AC-3
Формат/Информация                : Audio Coding 3
Расширение режима                : CM (complete main)
Идентификатор кодека             : A_AC3
Продолжительность                : 2 ч. 12 м.
Вид битрейта                     : Постоянный
Битрейт                          : 448 Кбит/сек
Каналы                           : 6 каналов
Расположение каналов             : Front: L C R, Side: L R, LFE
Частота                          : 48,0 КГц
Битовая глубина                  : 16 бит
Метод сжатия                     : С потерями
Размер потока                    : 423 Мбайт (7%)
Заголовок                        : Eng
Язык                             : English

Текст #1
Идентификатор                    : 4
Формат                           : UTF-8
Идентификатор кодека             : S_TEXT/UTF8
Идентификатор кодека/Информация  : UTF-8 Plain Text
Заголовок                        : Rus forced
Язык                             : Russian

Текст #2
Идентификатор                    : 5
Формат                           : UTF-8
Идентификатор кодека             : S_TEXT/UTF8
Идентификатор кодека/Информация  : UTF-8 Plain Text
Заголовок                        : Rus
Язык                             : Russian

Текст #3
Идентификатор                    : 6
Формат                           : UTF-8
Идентификатор кодека             : S_TEXT/UTF8
Идентификатор кодека/Информация  : UTF-8 Plain Text
Заголовок                        : Eng
Язык                             : English

Меню
00:00:00.000                     : :Chapter 01
00:04:01.241                     : :Chapter 02
00:10:22.913                     : :Chapter 03
00:20:08.790                     : :Chapter 04
00:27:05.206                     : :Chapter 05
00:37:29.163                     : :Chapter 06
00:47:43.569                     : :Chapter 07
00:58:51.653                     : :Chapter 08
01:07:42.433                     : :Chapter 09
01:15:01.038                     : :Chapter 10
01:22:34.199                     : :Chapter 11
01:30:29.799                     : :Chapter 12
01:37:02.066                     : :Chapter 13
01:46:52.030                     : :Chapter 14
01:53:48.988                     : :Chapter 15
02:02:54.533                     : :Chapter 16
02:12:01.496                     : :Chapter 17



Скриншоты:
[+] Всего файлов в раздаче - 1:
John.Carter.2012.BDRip.1080p.Rus.Eng.mkv5.77 GB

Похожие раздачи по запросу - джон:
2022-06-21 U Джон Харт - Сборник произведений (2009-2022) FB2 15.68 MB ↑ 24 ↓ 7
2022-04-12 U Кристофер Джон Сэнсом - Сборник произведений (2005-2022) FB2 50.37 MB ↑ 122 ↓ 1
2022-03-04 U Джон М. Форд - Дракон не дремлет (2022) FB2 1.97 MB ↑ 83 ↓ 0
2022-02-22 U Джон Скальци - Сборник произведений (2005-2021) FB2 24.07 MB ↑ 92 ↓ 11
2021-12-07 U Кристофер Джон Сэнсом - Сборник произведений (2005-2021) FB2 38.78 MB ↑ 68 ↓ 32
2021-11-18 U Джон Бокселл - Изучаем Arduino. 65 проектов своими руками (2017) PDF 1К10.42 MB ↑ 289 ↓ 37
2021-09-05 U Джон Максвелл - Как мыслят преуспевающие люди, или мыслите, чтобы измениться (2006) PDF 10.19 MB ↑ 331 ↓ 54

Отзывы
Зарегистрируйтесь чтобы добавить комментарий.
Торрент клиент
byTorrent - программа для загрузки торрент-файлов.

Скачать byTorrent.exe

Скачать byTorrent.zip

Поддержи torrent.by
российских рублей
(300 российских рублей это 4$)

Обратная связь rss
End ©