↑↓torrent.by
Поиск
Логин: Регистрация
Пароль: Восстановить пароль

Бесконечность / Infinite (2021) WEB-DLRip-AVC | Pazl Voice

Скачать beskonechnost-infinite-2021-web-dlrip-avc-pazl-voice.torrent
U Магнитная ссылка Размер: 1.45 GB Раздают: 159 Качают: 33 Добавлен: 2021-06-13 08:31:38
Бесконечность / Infinite (2021) WEB-DLRip-AVC | Pazl Voice

Название: Бесконечность
Оригинальное название: Infinite
Год выхода: 2021
Жанр:  фантастика, триллер
Режиссер: Антуан Фукуа
В ролях: Марк Уолберг, Дилан О Брайен, Софи Куксон, Уоллис Дэй, Джейсон Манцукас, Чиветел Эджиофор, Руперт Френд, Лили Рич, Тоби Джонс, Лиз Карр

Описание:
Эван Майклс страдает от необычного недуга: он в деталях помнит всё, что с ним происходило в двух прошлых жизнях. В поисках ответов Эван обнаруживает древнее тайное общество «Когномина», члены которого, так же как и он, помнят о своих прошлых жизнях. Не понаслышке знакомые с историей, они на протяжении веков контролируют развитие человечества, направляя его в нужную сторону. Эван понимает, что обязан вступить в ряды «Когномины».

Страна: США
Продолжительность: 01:46:20
Перевод: Любительский (многоголосый, закадровый) Pazl Voice
Субтитры: Английские

***За дорожку спасибо: kinopub. Поделился: dalemake

Файл                                      
Формат: Matroska
Качество: WEB-DLRip-AVC [infinite.2021.1080p.web.h264-naisu]
Видео: 1024x426 at 24.000 fps, x264@L4.1, ~1506 kbps, 0.144 bpp
Аудио: AC3, 6 ch, ~448 kbps - | Русский | -
Формат субтитров: softsub (SRT)
► Без Рекламы!

***Релиз от: -=DoMiNo=-


[+] M/I
x264 [info]: frame I:1326  Avg QP:15.98  size: 57735
x264 [info]: frame P:45792 Avg QP:19.80  size: 14088
x264 [info]: frame B:106015 Avg QP:21.89  size:  4523

General
Format                      : Matroska
Format version              : Version 4
File size                   : 1.45 GiB
Duration                    : 1 h 46 min
Overall bit rate            : 1 956 kb/s
Movie name                  : Бесконечность.(2021).WEB-DLRip-AVC.[-=DoMiNo=-]
Encoded date                : UTC 2021-06-12 19:51:56
Writing application         : mkvmerge v57.0.0 ('Till The End') 64-bit
Writing library             : libebml v1.4.2 + libmatroska v1.6.4
Cover                       : Yes
Attachments                 : Cover.png / Cover 2.jpg

Video
ID                          : 1
Format                      : AVC
Format/Info                 : Advanced Video Codec
Format profile              : High@L4.1
Format settings             : CABAC / 15 Ref Frames
Format settings, CABAC      : Yes
Format settings, Reference  : 15 frames
Codec ID                    : V_MPEG4/ISO/AVC
Duration                    : 1 h 46 min
Bit rate                    : 1 506 kb/s
Width                       : 1 024 pixels
Height                      : 426 pixels
Display aspect ratio        : 2.40:1
Frame rate mode             : Constant
Frame rate                  : 24.000 FPS
Color space                 : YUV
Chroma subsampling          : 4:2:0
Bit depth                   : 8 bits
Scan type                   : Progressive
Bits/(Pixel*Frame)          : 0.144
Stream size                 : 1.12 GiB (77%)
Title                       : -=DoMiNo=-
Writing library             : x264 core 163 r3059 b684ebe
Encoding settings           : cabac=1 / ref=15 / deblock=1:-2:-2 / analyse=0x3:0x133 / me=umh / subme=10 / psy=1 / psy_rd=1.00:0.20 / mixed_ref=1 / me_range=32 / chroma_me=1 / trellis=2 / 8x8dct=1 / cqm=0 / deadzone=21,11 / fast_pskip=0 / chroma_qp_offset=-3 / threads=32 / lookahead_threads=3 / sliced_threads=0 / nr=0 / decimate=1 / interlaced=0 / bluray_compat=0 / constrained_intra=0 / bframes=12 / b_pyramid=2 / b_adapt=2 / b_bias=0 / direct=3 / weightb=1 / open_gop=0 / weightp=2 / keyint=250 / keyint_min=24 / scenecut=40 / intra_refresh=0 / rc_lookahead=60 / rc=2pass / mbtree=0 / bitrate=1506 / ratetol=1.0 / qcomp=0.65 / qpmin=0 / qpmax=69 / qpstep=4 / cplxblur=20.0 / qblur=0.5 / vbv_maxrate=50000 / vbv_bufsize=62500 / nal_hrd=none / filler=0 / ip_ratio=1.40 / pb_ratio=1.30 / aq=3:1.00
Language                    : English
Default                     : Yes
Forced                      : No
Color range                 : Limited
Color primaries             : BT.709
Transfer characteristics    : BT.709
Matrix coefficients         : BT.709

Audio
ID                          : 2
Format                      : AC-3
Format/Info                 : Audio Coding 3
Commercial name             : Dolby Digital
Codec ID                    : A_AC3
Duration                    : 1 h 46 min
Bit rate mode               : Constant
Bit rate                    : 448 kb/s
Channel(s)                  : 6 channels
Channel layout              : L R C LFE Ls Rs
Sampling rate               : 48.0 kHz
Frame rate                  : 31.250 FPS (1536 SPF)
Compression mode            : Lossy
Stream size                 : 341 MiB (23%)
Title                       : DVO_[PV]
Language                    : Russian
Service kind                : Complete Main
Default                     : Yes
Forced                      : Yes

Text
ID                          : 3
Format                      : UTF-8
Codec ID                    : S_TEXT/UTF8
Codec ID/Info               : UTF-8 Plain Text
Duration                    : 1 h 40 min
Bit rate                    : 47 b/s
Count of elements           : 1128
Stream size                 : 35.0 KiB (0%)
Language                    : English
Default                     : No
Forced                      : No



Скриншоты:
[+] Всего файлов в раздаче - 1:

Похожие раздачи по запросу - бесконечность:
2022-01-23 U Бесконечность / Infinite (2021) BDRip 720p | D, P, A, L2 6.97 GB ↑ 38 ↓ 13
2022-01-23 U Бесконечность / Infinite (2021) BDRip 1080p | D, P, A, L2 13.24 GB ↑ 30 ↓ 12
2022-01-22 U Бесконечность / Infinite (2021) BDRip от Twister & ExKinoRay | D 2К1.46 GB ↑ 46 ↓ 15
2022-01-22 U Бесконечность / Infinite (2021) BDRip от New-Team | D 1.46 GB ↑ 34 ↓ 13
2022-01-21 U Бесконечность / Infinite (2021) BDRip 1080p от селезень | D 10.10 GB ↑ 59 ↓ 120
2022-01-21 U Бесконечность / Infinite (2021) BDRip 720p от селезень | D 5.27 GB ↑ 76 ↓ 85
2022-01-21 U Бесконечность / Infinite (2021) BDRip-AVC от HELLYWOOD | iTunes 1.41 GB ↑ 82 ↓ 21

Отзывы
Зарегистрируйтесь чтобы добавить комментарий.
Торрент клиент
byTorrent - программа для загрузки торрент-файлов.

Скачать byTorrent


Поддержи torrent.by
российских рублей
(300 российских рублей это 4$)

Обратная связь rss
End ©