↑↓torrent.by
Поиск
Логин: Регистрация
Пароль: Восстановить пароль

Бесконечность / Infinite (2021) WEBRip-HEVC 2160p | 4K | HDR | Pazl Voice

Скачать beskonechnost-infinite-2021-webrip-hevc-2160p-4k-hdr-pazl-voice.torrent
U Магнитная ссылка Размер: 11.70 GB Раздают: 205 Качают: 263 Добавлен: 2021-06-13 17:06:36
Бесконечность / Infinite (2021) WEBRip-HEVC 2160p | 4K | HDR | Pazl Voice

Название: Бесконечность
Оригинальное название: Infinite
Год выхода: 2021
Жанр: фантастика, боевик

Режиссер: Антуан Фукуа

В ролях: Марк Уолберг, Дилан О Брайен, Софи Куксон, Уоллис Дэй, Джейсон Манцукас, Чиветел Эджиофор, Руперт Френд, Лили Рич, Тоби Джонс, Лиз Карр

О фильме:
С самого детства Эван страдает от странных видений и реалистичных снов, знает вещи, которые никогда не запоминал, и имеет непонятно откуда взявшиеся навыки. С диагнозом «шизофрения» он влачит жалкое существование и зависит от таблеток. Пытаясь раздобыть очередную партю, Эван вздорит с дилером, устраивает заварушку и попадает в полицию. А там на него выходит загадочный мужчина, который утверждает, что знает его очень давно — ещё со Второй Пунической войны.

Страна: США
Продолжительность: 01:46:20
Перевод: Любительский (многоголосый, закадровый) | Pazl Voice

Файл
Кодек: H.265
Качество: WEBRip 2160p
Видео: MPEG-H HEVC, HDR10+, 3840x2160 (16:9), 23.976 fps, 14.3 Mb/s, 10 Bit
Аудио 1: AC3, 48.0 kHz, 6 ch, 448 kb/s |   RUS [MVO, Pazl Voice]
Аудио 2: AC3, 48.0 kHz, 6 ch, 384 kb/s |   UKR [MVO, HDrezka Studio / DniproFilm]
Аудио 3: E-AC3, 48.0 kHz, 6 ch, 640 kb/s |  ENG [Оригинал]  
Субтитры:  Русские (Forced, full), украинские (Forced), английские (Full)

Семпл


[+] MI
Общее
Уникальный идентификатор                 : 220132367200268712288658784127093686175 (0xA59BF3A7542A4A8B9090BF2F6095BF9F)
Полное имя                               : Infinite.(2021).WEB.2160p.HDR.mkv
Формат                                   : Matroska
Версия формата                           : Version 4 / Version 2
Размер файла                             : 11,7 Гбайт
Продолжительность                        : 1 ч. 46 м.
Общий поток                              : 15,7 Мбит/сек
Дата кодирования                         : UTC 2021-06-13 10:18:53
Программа кодирования                    : mkvmerge v8.3.0 ('Over the Horizon') 64bit
Библиотека кодирования                   : libebml v1.3.1 + libmatroska v1.4.2

Видео
Идентификатор                            : 1
Формат                                   : HEVC
Формат/Информация                        : High Efficiency Video Coding
Профиль формата                          : Main 10@L5@High
HDR format                               : SMPTE ST 2094 App 4, Version 1, HDR10+ Profile B compatible
Идентификатор кодека                     : V_MPEGH/ISO/HEVC
Продолжительность                        : 1 ч. 46 м.
Битрейт                                  : 14,3 Мбит/сек
Ширина                                   : 3 840 пикселей
Высота                                   : 2 160 пикселей
Соотношение сторон                       : 16:9
Режим частоты кадров                     : Постоянный
Частота кадров                           : 23,976 (24000/1001) кадра/сек
Цветовое пространство                    : YUV
Субдискретизация насыщенности            : 4:2:0 (Type 2)
Битовая глубина                          : 10 бит
Бит/(Пиксели*Кадры)                      : 0.072
Размер потока                            : 10,6 Гбайт (91%)
Default                                  : Да
Forced                                   : Нет
Цветовой диапазон                        : Full
Основные цвета                           : BT.2020
Характеристики трансфера                 : PQ
Коэффициенты матрицы                     : BT.2020 non-constant
Mastering display color primaries        : Display P3
Mastering display luminance              : min: 0.0001 cd/m2, max: 1000 cd/m2

Аудио #1
Идентификатор                            : 2
Формат                                   : AC-3
Формат/Информация                        : Audio Coding 3
Коммерческое название                    : Dolby Digital
Идентификатор кодека                     : A_AC3
Продолжительность                        : 1 ч. 46 м.
Вид битрейта                             : Постоянный
Битрейт                                  : 448 Кбит/сек
Каналы                                   : 6 каналов
Channel layout                           : L R C LFE Ls Rs
Частота                                  : 48,0 КГц
Частота кадров                           : 31,250 кадров/сек (1536 SPF)
Метод сжатия                             : С потерями
Размер потока                            : 341 Мбайт (3%)
Заголовок                                : MVO (Pazl Voice)
Язык                                     : Russian
Service kind                             : Complete Main
Default                                  : Да
Forced                                   : Нет

Аудио #2
Идентификатор                            : 3
Формат                                   : AC-3
Формат/Информация                        : Audio Coding 3
Коммерческое название                    : Dolby Digital
Идентификатор кодека                     : A_AC3
Продолжительность                        : 1 ч. 46 м.
Вид битрейта                             : Постоянный
Битрейт                                  : 384 Кбит/сек
Каналы                                   : 6 каналов
Channel layout                           : L R C LFE Ls Rs
Частота                                  : 48,0 КГц
Частота кадров                           : 31,250 кадров/сек (1536 SPF)
Метод сжатия                             : С потерями
Размер потока                            : 292 Мбайт (2%)
Заголовок                                : MVO (HDrezka Studio / DniproFilm)
Язык                                     : Ukrainian
Service kind                             : Complete Main
Default                                  : Нет
Forced                                   : Нет

Аудио #3
Идентификатор                            : 4
Формат                                   : E-AC-3
Формат/Информация                        : Enhanced AC-3
Коммерческое название                    : Dolby Digital Plus
Идентификатор кодека                     : A_EAC3
Продолжительность                        : 1 ч. 46 м.
Вид битрейта                             : Постоянный
Битрейт                                  : 640 Кбит/сек
Каналы                                   : 6 каналов
Channel layout                           : L R C LFE Ls Rs
Частота                                  : 48,0 КГц
Частота кадров                           : 31,250 кадров/сек (1536 SPF)
Метод сжатия                             : С потерями
Размер потока                            : 487 Мбайт (4%)
Заголовок                                : Original
Язык                                     : English
Service kind                             : Complete Main
Default                                  : Нет
Forced                                   : Нет

Текст #1
Идентификатор                            : 5
Формат                                   : UTF-8
Идентификатор кодека                     : S_TEXT/UTF8
Идентификатор кодека/Информация          : UTF-8 Plain Text
Продолжительность                        : 1 ч. 35 м.
Битрейт                                  : 0 бит/сек
Count of elements                        : 19
Размер потока                            : 585 байт (0%)
Заголовок                                : Forced (HDrezka)
Язык                                     : Russian
Default                                  : Да
Forced                                   : Нет

Текст #2
Идентификатор                            : 6
Формат                                   : UTF-8
Идентификатор кодека                     : S_TEXT/UTF8
Идентификатор кодека/Информация          : UTF-8 Plain Text
Продолжительность                        : 1 ч. 36 м.
Битрейт                                  : 74 бит/сек
Count of elements                        : 947
Размер потока                            : 53,1 Кбайт (0%)
Заголовок                                : Full
Язык                                     : Russian
Default                                  : Нет
Forced                                   : Нет

Текст #3
Идентификатор                            : 7
Формат                                   : UTF-8
Идентификатор кодека                     : S_TEXT/UTF8
Идентификатор кодека/Информация          : UTF-8 Plain Text
Продолжительность                        : 1 ч. 35 м.
Битрейт                                  : 0 бит/сек
Count of elements                        : 19
Размер потока                            : 619 байт (0%)
Заголовок                                : Forced (HDrezka)
Язык                                     : Ukrainian
Default                                  : Нет
Forced                                   : Нет

Текст #4
Идентификатор                            : 8
Формат                                   : UTF-8
Идентификатор кодека                     : S_TEXT/UTF8
Идентификатор кодека/Информация          : UTF-8 Plain Text
Продолжительность                        : 1 ч. 40 м.
Битрейт                                  : 46 бит/сек
Count of elements                        : 1129
Размер потока                            : 34,3 Кбайт (0%)
Заголовок                                : Full
Язык                                     : English
Default                                  : Нет
Forced                                   : Нет



Скриншоты:
[+] Всего файлов в раздаче - 1:

Похожие раздачи по запросу - бесконечность:
2022-01-23 U Бесконечность / Infinite (2021) BDRip 720p | D, P, A, L2 6.97 GB ↑ 38 ↓ 13
2022-01-23 U Бесконечность / Infinite (2021) BDRip 1080p | D, P, A, L2 13.24 GB ↑ 30 ↓ 12
2022-01-22 U Бесконечность / Infinite (2021) BDRip от Twister & ExKinoRay | D 2К1.46 GB ↑ 46 ↓ 15
2022-01-22 U Бесконечность / Infinite (2021) BDRip от New-Team | D 1.46 GB ↑ 34 ↓ 13
2022-01-21 U Бесконечность / Infinite (2021) BDRip 1080p от селезень | D 10.10 GB ↑ 59 ↓ 120
2022-01-21 U Бесконечность / Infinite (2021) BDRip 720p от селезень | D 5.27 GB ↑ 76 ↓ 85
2022-01-21 U Бесконечность / Infinite (2021) BDRip-AVC от HELLYWOOD | iTunes 1.41 GB ↑ 82 ↓ 21

Отзывы
Зарегистрируйтесь чтобы добавить комментарий.
Торрент клиент
byTorrent - программа для загрузки торрент-файлов.

Скачать byTorrent


Поддержи torrent.by
российских рублей
(300 российских рублей это 4$)

Обратная связь rss
End ©