↑↓torrent.by
Поиск
Логин: Регистрация
Пароль: Восстановить пароль

Бесконечность / Infinite (2021) WEB-DLRip-AVC от MediaBit | Pazl Voice

Скачать beskonechnost-infinite-2021-web-dlrip-avc-ot-mediabit-pazl-voice.torrent
U Магнитная ссылка Размер: 2.05 GB Раздают: 155 Качают: 69 Добавлен: 2021-06-13 17:06:54
Бесконечность / Infinite (2021) WEB-DLRip-AVC от MediaBit | Pazl Voice

Бесконечность / Infinite

Название:  Бесконечность  
Оригинальное название:  Infinite
Год выхода: 2021
Жанр: фантастика, боевик
Режиссер:  Антуан Фукуа
В ролях:   Марк Уолберг, Дилан О Брайен, Софи Куксон, Уоллис Дэй, Джейсон Манцукас, Чиветел Эджиофор, Руперт Френд, Лили Рич, Тоби Джонс, Лиз Карр  

Описание:   С самого детства Эван страдает от странных видений и реалистичных снов, знает вещи, которые никогда не запоминал, и имеет непонятно откуда взявшиеся навыки. С диагнозом «шизофрения» он влачит жалкое существование и зависит от таблеток. Пытаясь раздобыть очередную партю, Эван вздорит с дилером, устраивает заварушку и попадает в полицию. А там на него выходит загадочный мужчина, который утверждает, что знает его очень давно — ещё со Второй Пунической войны.

Страна:  США
Студия:  Closest to the Hole Productions, Di Bonaventura Pictures, New Republic Pictures  
Продолжительность:  01:46:20  
Перевод:  Любительский (двухголосый, закадровый) - Pazl Voice

Информация о файле:
Кодек: AVC
Формат: MKV
Качество: WEB-DLRip-AVC
Видео: MPEG-4 AVC, 1024x428, 24.000 fps, 1862 kbps  
Аудио RU:  AC3, 6 ch, 48 kHz, 448 kbps  
Аудио EN:  AC3, 6 ch, 48 kHz, 448 kbps  
Субтитры: Английские

 




Релиз: &  

Автор релиза:


[+] MediaInfo
x264 info: frame I:1334  Avg QP:14.37  size: 67602 [url=/tag/1/][/url]
x264 info: frame P:47960 Avg QP:18.42  size: 16889 [url=/tag/1/][/url]
x264 info: frame B:103838 Avg QP:21.66  size:  5631 [url=/tag/1/][/url]
General [url=/tag/1/][/url]
Unique ID                                : 290133404808196779006957526388800014953 (0xDA45A945A12BC1AC8A517AAA4CB4CA69) [url=/tag/1/][/url]
Complete name                            : D:uTorrentРипы wolf1245Infinite.2021.DVO.Pazl.Voice.WEB-DLRip-AVC.[wolf1245.MediaBit].mkv [url=/tag/1/][/url]
Format                                   : Matroska [url=/tag/1/][/url]
Format version                           : Version 4 [url=/tag/1/][/url]
File size                                : 2.05 GiB [url=/tag/1/][/url]
Duration                                 : 1 h 46 min [url=/tag/1/][/url]
Overall bit rate                         : 2 760 kb/s [url=/tag/1/][/url]
Movie name                               : Infinite.2021.DVO.Pazl.Voice.WEB-DLRip-AVC.[wolf1245.MediaBit] [url=/tag/1/][/url]
Encoded date                             : UTC 2021-06-13 12:18:43 [url=/tag/1/][/url]
Writing application                      : mkvmerge v57.0.0 ('Till The End') 64-bit [url=/tag/1/][/url]
Writing library                          : libebml v1.4.2 + libmatroska v1.6.4 [url=/tag/1/][/url]
[url=/tag/1/][/url]
Video [url=/tag/1/][/url]
ID                                       : 1 [url=/tag/1/][/url]
Format                                   : AVC [url=/tag/1/][/url]
Format/Info                              : Advanced Video Codec [url=/tag/1/][/url]
Format profile                           : High@L4.1 [url=/tag/1/][/url]
Format settings                          : CABAC / 14 Ref Frames [url=/tag/1/][/url]
Format settings, CABAC                   : Yes [url=/tag/1/][/url]
Format settings, Reference frames        : 14 frames [url=/tag/1/][/url]
Codec ID                                 : V_MPEG4/ISO/AVC [url=/tag/1/][/url]
Duration                                 : 1 h 46 min [url=/tag/1/][/url]
Bit rate                                 : 1 862 kb/s [url=/tag/1/][/url]
Width                                    : 1 024 pixels [url=/tag/1/][/url]
Height                                   : 428 pixels [url=/tag/1/][/url]
Display aspect ratio                     : 2.40:1 [url=/tag/1/][/url]
Frame rate mode                          : Constant [url=/tag/1/][/url]
Frame rate                               : 24.000 FPS [url=/tag/1/][/url]
Color space                              : YUV [url=/tag/1/][/url]
Chroma subsampling                       : 4:2:0 [url=/tag/1/][/url]
Bit depth                                : 8 bits [url=/tag/1/][/url]
Scan type                                : Progressive [url=/tag/1/][/url]
Bits/(Pixel*Frame)                       : 0.177 [url=/tag/1/][/url]
Stream size                              : 1.38 GiB (67%) [url=/tag/1/][/url]
Title                                    : .[wolf1245.MediaBit] [url=/tag/1/][/url]
Writing library                          : x264 core 157 r2958 57baac4 [url=/tag/1/][/url]
Encoding settings                        : cabac=1 / ref=14 / deblock=1:-2:-1 / analyse=0x3:0x133 / me=umh / subme=11 / psy=1 / psy_rd=1.00:0.05 / mixed_ref=1 / me_range=48 / chroma_me=1 / trellis=2 / 8x8dct=1 / cqm=0 / deadzone=21,11 / fast_pskip=1 / chroma_qp_offset=-3 / threads=10 / lookahead_threads=2 / sliced_threads=0 / nr=0 / decimate=1 / interlaced=0 / bluray_compat=0 / constrained_intra=0 / bframes=12 / b_pyramid=2 / b_adapt=2 / b_bias=0 / direct=3 / weightb=1 / open_gop=0 / weightp=2 / keyint=240 / keyint_min=24 / scenecut=40 / intra_refresh=0 / rc_lookahead=60 / rc=2pass / mbtree=1 / bitrate=1862 / ratetol=1.0 / qcomp=0.60 / qpmin=0 / qpmax=69 / qpstep=4 / cplxblur=20.0 / qblur=0.5 / vbv_maxrate=50000 / vbv_bufsize=62500 / nal_hrd=none / filler=0 / ip_ratio=1.40 / aq=2:1.00 [url=/tag/1/][/url]
Language                                 : English [url=/tag/1/][/url]
Default                                  : Yes [url=/tag/1/][/url]
Forced                                   : No [url=/tag/1/][/url]
Color range                              : Limited [url=/tag/1/][/url]
Color primaries                          : BT.709 [url=/tag/1/][/url]
Transfer characteristics                 : BT.709 [url=/tag/1/][/url]
Matrix coefficients                      : BT.709 [url=/tag/1/][/url]
[url=/tag/1/][/url]
Audio #1 [url=/tag/1/][/url]
ID                                       : 2 [url=/tag/1/][/url]
Format                                   : AC-3 [url=/tag/1/][/url]
Format/Info                              : Audio Coding 3 [url=/tag/1/][/url]
Commercial name                          : Dolby Digital [url=/tag/1/][/url]
Codec ID                                 : A_AC3 [url=/tag/1/][/url]
Duration                                 : 1 h 46 min [url=/tag/1/][/url]
Bit rate mode                            : Constant [url=/tag/1/][/url]
Bit rate                                 : 448 kb/s [url=/tag/1/][/url]
Channel(s)                               : 6 channels [url=/tag/1/][/url]
Channel layout                           : L R C LFE Ls Rs [url=/tag/1/][/url]
Sampling rate                            : 48.0 kHz [url=/tag/1/][/url]
Frame rate                               : 31.250 FPS (1536 SPF) [url=/tag/1/][/url]
Bit depth                                : 16 bits [url=/tag/1/][/url]
Compression mode                         : Lossy [url=/tag/1/][/url]
Stream size                              : 341 MiB (16%) [url=/tag/1/][/url]
Title                                    : DVO | Pazl Voice [url=/tag/1/][/url]
Language                                 : Russian [url=/tag/1/][/url]
Service kind                             : Complete Main [url=/tag/1/][/url]
Default                                  : Yes [url=/tag/1/][/url]
Forced                                   : No [url=/tag/1/][/url]
[url=/tag/1/][/url]
Audio #2 [url=/tag/1/][/url]
ID                                       : 3 [url=/tag/1/][/url]
Format                                   : AC-3 [url=/tag/1/][/url]
Format/Info                              : Audio Coding 3 [url=/tag/1/][/url]
Commercial name                          : Dolby Digital [url=/tag/1/][/url]
Codec ID                                 : A_AC3 [url=/tag/1/][/url]
Duration                                 : 1 h 46 min [url=/tag/1/][/url]
Bit rate mode                            : Constant [url=/tag/1/][/url]
Bit rate                                 : 448 kb/s [url=/tag/1/][/url]
Channel(s)                               : 6 channels [url=/tag/1/][/url]
Channel layout                           : L R C LFE Ls Rs [url=/tag/1/][/url]
Sampling rate                            : 48.0 kHz [url=/tag/1/][/url]
Frame rate                               : 31.250 FPS (1536 SPF) [url=/tag/1/][/url]
Bit depth                                : 16 bits [url=/tag/1/][/url]
Compression mode                         : Lossy [url=/tag/1/][/url]
Stream size                              : 341 MiB (16%) [url=/tag/1/][/url]
Title                                    : Original [url=/tag/1/][/url]
Language                                 : English [url=/tag/1/][/url]
Service kind                             : Complete Main [url=/tag/1/][/url]
Default                                  : No [url=/tag/1/][/url]
Forced                                   : No [url=/tag/1/][/url]
[url=/tag/1/][/url]
Text [url=/tag/1/][/url]
ID                                       : 4 [url=/tag/1/][/url]
Format                                   : UTF-8 [url=/tag/1/][/url]
Codec ID                                 : S_TEXT/UTF8 [url=/tag/1/][/url]
Codec ID/Info                            : UTF-8 Plain Text [url=/tag/1/][/url]
Duration                                 : 1 h 40 min [url=/tag/1/][/url]
Bit rate                                 : 47 b/s [url=/tag/1/][/url]
Count of elements                        : 1128 [url=/tag/1/][/url]
Stream size                              : 35.0 KiB (0%) [url=/tag/1/][/url]
Language                                 : English [url=/tag/1/][/url]
Default                                  : No [url=/tag/1/][/url]
Forced                                   : No [url=/tag/1/][/url]
[url=/tag/1/][/url]



Скриншоты:
[+] Всего файлов в раздаче - 1:

Похожие раздачи по запросу - бесконечность:
2022-01-23 U Бесконечность / Infinite (2021) BDRip 720p | D, P, A, L2 6.97 GB ↑ 38 ↓ 13
2022-01-23 U Бесконечность / Infinite (2021) BDRip 1080p | D, P, A, L2 13.24 GB ↑ 30 ↓ 12
2022-01-22 U Бесконечность / Infinite (2021) BDRip от Twister & ExKinoRay | D 2К1.46 GB ↑ 46 ↓ 15
2022-01-22 U Бесконечность / Infinite (2021) BDRip от New-Team | D 1.46 GB ↑ 34 ↓ 13
2022-01-21 U Бесконечность / Infinite (2021) BDRip 1080p от селезень | D 10.10 GB ↑ 59 ↓ 120
2022-01-21 U Бесконечность / Infinite (2021) BDRip 720p от селезень | D 5.27 GB ↑ 76 ↓ 85
2022-01-21 U Бесконечность / Infinite (2021) BDRip-AVC от HELLYWOOD | iTunes 1.41 GB ↑ 82 ↓ 21

Отзывы
Зарегистрируйтесь чтобы добавить комментарий.
Торрент клиент
byTorrent - программа для загрузки торрент-файлов.

Скачать byTorrent


Поддержи torrent.by
российских рублей
(300 российских рублей это 4$)

Обратная связь rss
End ©