↑↓Torrent.by
Поиск
Логин: Регистрация
Пароль: Восстановить пароль
Загрузка...

Мстители: Эра Альтрона / Avengers: Age of Ultron (2015) WEBRip [1080p] [Трейлер 3]

Скачать mstiteli-era-altrona-avengers-age-of-ultron-2015-webrip-1080p-treyler-3.torrent
U Магнитная ссылка Размер: 48.77 MB Раздают: 421 Качают: 13734 Добавлен: 2015-03-09 22:18:22

Год выпуска: 2015
Производство: США / Marvel Studios Inc.
Жанр: Фантастика, Фэнтези, Боевик, Приключения

Режиссер: Джосс Уидон / Joss Whedon
Актеры: Роберт Дауни мл., Крис Хемсворт, Крис Эванс, Скарлетт Йоханссон, Марк Руффало, Джереми Реннер, Сэмюэл Л. Джексон, Аарон Тейлор-Джонсон, Элизабет Олсен, Джеймс Спэйдер

Описание фильма: Человечество на грани уничтожения. На этот раз людям угрожает Альтрон — искусcтвенный интеллект, ранее созданый для того, чтобы защищать Землю от любых угроз. Однако, главной угрозой он посчитал человечество. Международная организация Щ. И. Т распалась, и теперь мир не способен справиться с таким мощным врагом, потому люди вновь обращаются за помощью к Величайшим Героям Земли — Мстителям. Однако Альтрон слишком силен, и есть большая вероятность, что даже им не удастся остановить начало надвигающейся Эры Альтрона, где нет места для людей…

Перевод: Профессиональный (полное дублирование)



Дата мировой премьеры: 22 апреля 2015
Дата российской премьеры: 23 апреля 2015, «WDSSPR»
Дата украинской премьеры: 23 апреля 2015, «B&H Film Distribution Company»

Продолжительность: 00:02:08
Качество видео: WEBRip [1080p]

Видеокодек: MPEG-4 AVC
Битрейт видео: ~ 3058 Кбит/сек
Размер кадра: 1920x796
Аудиокодек: AAC 2.0
Битрейт аудио:  126 Кбит/сек (CBR)

[+] "MediaInfo"
Общее
Полное имя : D:\ТОРРЕНТЫ\ЗАГРУЗКИ\Мстители Эра Альтрона - The Avengers Age of Ultron (2015) WEBRip [1080p] [Трейлер 3].mp4
Формат : MPEG-4
Профиль формата : Base Media
Идентификатор кодека : isom
Размер файла : 48,8 Мбайт
Продолжительность : 2 м. 8 с.
Общий поток : 3189 Кбит/сек
Программа кодирования : Lavf55.22.100

Видео
Идентификатор : 1
Формат : AVC
Формат/Информация : Advanced Video Codec
Профиль формата : [url=mailto:High@L4.0]High@L4.0[/url]
Параметр CABAC формата : Да
Параметр ReFrames формата : 2 кадра
Идентификатор кодека : avc1
Идентификатор кодека/Информация : Advanced Video Coding
Продолжительность : 2 м. 8 с.
Битрейт : 3058 Кбит/сек
Ширина : 1920 пикселей
Высота : 796 пикселей
Соотношение сторон : 2,40:1
Режим частоты кадров : Переменный
Частота кадров : 23,976 кадра/сек
Минимальная частота кадров : 23,974 кадра/сек
Максимальная частота кадров : 23,981 кадра/сек
Цветовое пространство : YUV
Субдискретизация насыщенности : 4:2:0
Битовая глубина : 8 бит
Тип развёртки : Прогрессивная
Бит/(Пиксели*Кадры) : 0.083
Размер потока : 46,7 Мбайт (96%)

Аудио
Идентификатор : 2
Формат : AAC
Формат/Информация : Advanced Audio Codec
Профиль формата : LC
Идентификатор кодека : 40
Продолжительность : 2 м. 8 с.
Вид битрейта : Постоянный
Битрейт : 126 Кбит/сек
Каналы : 2 канала
Расположение каналов : Front: L R
Частота : 44,1 КГц
Метод сжатия : С потерями
Размер потока : 1,92 Мбайт (4%)

[+] Скриншоты
           

[+] Всего файлов в раздаче - 1:
Мстители Эра Альтрона - The Avengers Age of Ultron (2015) WEBRip [1080p] [Трейлер 3].mp448.77 MB

Текущая раздача:
ДатаКомментарии    РазмерПиры
2015-03-09 U Мстители: Эра Альтрона / Avengers: Age of Ultron (2015) WEBRip [1080p] [Трейлер 3] 48.77 MB ↑ 421 ↓ 13734

Показать еще раздачи по запросу мстители:
2018-09-23 U Мстители: Война бесконечности / Avengers: Infinity War (2018) BDRip 720p от NNNB | 60 fps | Лицензия 9.55 GB ↑ 57 ↓ 28
2018-09-21 U Мстители: Война бесконечности / Avengers: Infinity War (2018) HDRip от Scarabey | Лицензия 1.46 GB ↑ 1262 ↓ 32
2018-09-20 U Мстители: Война бесконечности / Avengers: Infinity War (2018) HDRip от Scarabey | Лицензия 2.19 GB ↑ 58 ↓ 22
2018-09-19 U Мстители: Война бесконечности / Avengers: Infinity War (2018) BDRip от MegaPeer | Лицензия 2.18 GB ↑ 102 ↓ 6
2018-09-19 U Мстители: Война бесконечности / Avengers: Infinity War (2018) BDRip от ExKinoRay | Лицензия 1.46 GB ↑ 37 ↓ 9
2018-09-19 U Мстители: Война бесконечности / Avengers: Infinity War (2018) BDRip 1080p от Ash61 | 3D-Video | halfOU | Лицензия 12.46 GB ↑ 44 ↓ 24
2018-09-19 U Мстители: Война бесконечности / Avengers: Infinity War (2018) BDRip 720p от k.e.n & MegaPeer | D | Лицензия 5.76 GB ↑ 67 ↓ 25

Отзывы
Зарегистрируйтесь чтобы добавить комментарий.
Обратная связь
Copyleft ©