↑↓torrent.by
Поиск
Логин: Регистрация
Пароль: Восстановить пароль

Бесконечность / Infinite (2021) UHD WEB-DL 2160p от селезень | HDR | HDRezka Studio

Скачать beskonechnost-infinite-2021-uhd-web-dl-2160p-ot-selezen-hdr-hdrezka-studio.torrent
U Магнитная ссылка Размер: 11.70 GB Раздают: 260 Качают: 217 Добавлен: 2021-06-15 17:43:19
Бесконечность / Infinite (2021) UHD WEB-DL 2160p от селезень | HDR | HDRezka Studio

Название: Бесконечность
Оригинальное название: Infinite
Год выхода: 2021
Жанр: Фантастика, боевик
Режиссер: Антуан Фукуа
В ролях: Марк Уолберг, Дилан О Брайен, Софи Куксон, Уоллис Дэй, Джейсон Манцукас, Чиветел Эджиофор, Руперт Френд, Лили Рич, Тоби Джонс, Лиз Карр

О фильме: Эван Майклс страдает от необычного недуга: он в деталях помнит всё, что с ним происходило в двух прошлых жизнях. В поисках ответов Эван натыкается на древнее тайное общество «Когномина», члены которого, так же как и он, помнят о своих прошлых жизнях. Не понаслышке знакомые с историей, они на протяжении веков контролируют развитие человечества, направляя его в нужную сторону. Эван понимает, что обязан вступить в ряды «Когномины».

Страна: США
Студия: Closest to the Hole Productions, Di Bonaventura Pictures, New Republic Pictures
Продолжительность: 01:46:20
Перевод: Профессиональный многоголосый | HDRezka Studio

Качество: WEB-DL 2160p
Видео: 3840x2160 at 24.000 fps, MPEG-H HEVC HDR Video, ~ 14300 kbps avg
Аудио #01: 48 kHz, AC3, 5.1, 448 Kbps | Профессиональный многоголосый | HDRezka Studio | RUS |
Аудио #02: 48 kHz, AC3, 5.1, 384 Kbps | Профессиональный многоголосый | HDRezka Studio | UKR |
Аудио #03: 48 kHz, E-AC3, 5.1, 640 Kbps | Оригинал | ENG |
Субтитры: Русские (Forced, full), украинские (Forced), английские

Релиз: Присоединяйся к:


[+] MI
General
Unique ID                   : 70265889242847746731302333314328965257 (0x34DCB7CFE889FF42E9C45E2324243089)
Complete name               : F:VideoInfinite.2021.WEB-DL.2160p.HDR.seleZen.mkv
Format                      : Matroska
Format version              : Version 4
File size                   : 11.7 GiB
Duration                    : 1 h 46 min
Overall bit rate            : 15.7 Mb/s
Movie name                  : Infinite 2021 from seleZen
Encoded date                : UTC 2021-06-15 04:38:52
Writing application         : mkvmerge v55.0.0 ('Waiting For Space') 64-bit
Writing library             : libebml v1.4.2 + libmatroska v1.6.4

Video
ID                          : 1
Format                      : HEVC
Format/Info                 : High Efficiency Video Coding
Format profile              : Main 10@L5@High
HDR format                  : SMPTE ST 2094 App 4, Version 1, HDR10+ Profile B compatible
Codec ID                    : V_MPEGH/ISO/HEVC
Duration                    : 1 h 46 min
Bit rate                    : 14.3 Mb/s
Width                       : 3 840 pixels
Height                      : 2 160 pixels
Display aspect ratio        : 16:9
Frame rate mode             : Constant
Frame rate                  : 23.976 (24000/1001) FPS
Color space                 : YUV
Chroma subsampling          : 4:2:0 (Type 2)
Bit depth                   : 10 bits
Bits/(Pixel*Frame)          : 0.072
Stream size                 : 10.6 GiB (91%)
Language                    : English
Default                     : Yes
Forced                      : No
Color range                 : Full
Color primaries             : BT.2020
Transfer characteristics    : PQ
Matrix coefficients         : BT.2020 non-constant
Mastering display color pri : Display P3
Mastering display luminance : min: 0.0001 cd/m2, max: 1000 cd/m2

Audio #1
ID                          : 2
Format                      : AC-3
Format/Info                 : Audio Coding 3
Commercial name             : Dolby Digital
Codec ID                    : A_AC3
Duration                    : 1 h 46 min
Bit rate mode               : Constant
Bit rate                    : 448 kb/s
Channel(s)                  : 6 channels
Channel layout              : L R C LFE Ls Rs
Sampling rate               : 48.0 kHz
Frame rate                  : 31.250 FPS (1536 SPF)
Compression mode            : Lossy
Stream size                 : 341 MiB (3%)
Title                       : MVO [HDrezka Studio]
Language                    : Russian
Service kind                : Complete Main
Default                     : Yes
Forced                      : Yes

Audio #2
ID                          : 3
Format                      : AC-3
Format/Info                 : Audio Coding 3
Commercial name             : Dolby Digital
Codec ID                    : A_AC3
Duration                    : 1 h 46 min
Bit rate mode               : Constant
Bit rate                    : 384 kb/s
Channel(s)                  : 6 channels
Channel layout              : L R C LFE Ls Rs
Sampling rate               : 48.0 kHz
Frame rate                  : 31.250 FPS (1536 SPF)
Compression mode            : Lossy
Stream size                 : 292 MiB (2%)
Title                       : MVO [HDrezka Studio]
Language                    : Ukrainian
Service kind                : Complete Main
Default                     : No
Forced                      : No

Audio #3
ID                          : 4
Format                      : E-AC-3
Format/Info                 : Enhanced AC-3
Commercial name             : Dolby Digital Plus
Codec ID                    : A_EAC3
Duration                    : 1 h 46 min
Bit rate mode               : Constant
Bit rate                    : 640 kb/s
Channel(s)                  : 6 channels
Channel layout              : L R C LFE Ls Rs
Sampling rate               : 48.0 kHz
Frame rate                  : 31.250 FPS (1536 SPF)
Compression mode            : Lossy
Stream size                 : 487 MiB (4%)
Title                       : Original
Language                    : English
Service kind                : Complete Main
Default                     : No
Forced                      : No

Text #1
ID                          : 5
Format                      : UTF-8
Codec ID                    : S_TEXT/UTF8
Codec ID/Info               : UTF-8 Plain Text
Duration                    : 1 h 35 min
Bit rate                    : 1 b/s
Count of elements           : 18
Stream size                 : 766 Bytes (0%)
Title                       : Forced [HDRezka Studio]
Language                    : Russian
Default                     : Yes
Forced                      : Yes

Text #2
ID                          : 6
Format                      : UTF-8
Codec ID                    : S_TEXT/UTF8
Codec ID/Info               : UTF-8 Plain Text
Duration                    : 1 h 41 min
Bit rate                    : 65 b/s
Count of elements           : 965
Stream size                 : 49.1 KiB (0%)
Title                       : Full [PhysKids]
Language                    : Russian
Default                     : No
Forced                      : No

Text #3
ID                          : 7
Format                      : UTF-8
Codec ID                    : S_TEXT/UTF8
Codec ID/Info               : UTF-8 Plain Text
Duration                    : 1 h 35 min
Bit rate                    : 0 b/s
Count of elements           : 19
Stream size                 : 619 Bytes (0%)
Title                       : Forced [HDrezka Studio]
Language                    : Ukrainian
Default                     : No
Forced                      : No

Text #4
ID                          : 8
Format                      : UTF-8
Codec ID                    : S_TEXT/UTF8
Codec ID/Info               : UTF-8 Plain Text
Duration                    : 1 h 36 min
Bit rate                    : 43 b/s
Count of elements           : 954
Stream size                 : 31.0 KiB (0%)
Title                       : Full
Language                    : English
Default                     : No
Forced                      : No

Text #5
ID                          : 9
Format                      : UTF-8
Codec ID                    : S_TEXT/UTF8
Codec ID/Info               : UTF-8 Plain Text
Duration                    : 1 h 40 min
Bit rate                    : 47 b/s
Count of elements           : 1128
Stream size                 : 35.0 KiB (0%)
Title                       : SDH
Language                    : English
Default                     : No
Forced                      : No



Скриншоты:
[+] Всего файлов в раздаче - 1:

Похожие раздачи по запросу - бесконечность:
2022-01-23 U Бесконечность / Infinite (2021) BDRip 720p | D, P, A, L2 6.97 GB ↑ 38 ↓ 13
2022-01-23 U Бесконечность / Infinite (2021) BDRip 1080p | D, P, A, L2 13.24 GB ↑ 30 ↓ 12
2022-01-22 U Бесконечность / Infinite (2021) BDRip от Twister & ExKinoRay | D 2К1.46 GB ↑ 46 ↓ 15
2022-01-22 U Бесконечность / Infinite (2021) BDRip от New-Team | D 1.46 GB ↑ 34 ↓ 13
2022-01-21 U Бесконечность / Infinite (2021) BDRip 1080p от селезень | D 10.10 GB ↑ 59 ↓ 120
2022-01-21 U Бесконечность / Infinite (2021) BDRip 720p от селезень | D 5.27 GB ↑ 76 ↓ 85
2022-01-21 U Бесконечность / Infinite (2021) BDRip-AVC от HELLYWOOD | iTunes 1.41 GB ↑ 82 ↓ 21

Отзывы
Зарегистрируйтесь чтобы добавить комментарий.
Торрент клиент
byTorrent - программа для загрузки торрент-файлов.

Скачать byTorrent


Поддержи torrent.by
российских рублей
(300 российских рублей это 4$)

Обратная связь rss
End ©