↑↓torrent.by
Поиск
Логин: Регистрация
Пароль: Восстановить пароль

Бесконечность / Infinite (2021) WEB-DL 720p | P, A

Скачать beskonechnost-infinite-2021-web-dl-720p-p-a.torrent
U Магнитная ссылка Размер: 3.19 GB Раздают: 210 Качают: 73 Добавлен: 2021-06-19 20:04:28
Бесконечность / Infinite (2021) WEB-DL 720p | P, A

Год выпуска: 2021
Страна / студия: США, Closest to the Hole Productions, Di Bonaventura Pictures, New Republic Pictures  
Жанр: фантастика, боевик
Продолжительность: 01:46:20
Перевод: Авторский (одноголосый закадровый) | М. Яроцкий, Профессиональный (многоголосый, закадровый) | HDRezka Studio

Режиссер: Антуан Фукуа
В ролях: Марк Уолберг, Дилан О Брайен, Софи Куксон, Уоллис Дэй, Джейсон Манцукас, Чиветел Эджиофор, Руперт Френд, Лили Рич, Тоби Джонс, Лиз Карр

О фильме: С самого детства Эван страдает от странных видений и реалистичных снов, знает вещи, которые никогда не запоминал, и имеет непонятно откуда взявшиеся навыки. С диагнозом «шизофрения» он влачит жалкое существование и зависит от таблеток. Пытаясь раздобыть очередную партю, Эван вздорит с дилером, устраивает заварушку и попадает в полицию. А там на него выходит загадочный мужчина, который утверждает, что знает его очень давно — ещё со Второй Пунической войны.

Качество: WEB-DL 720p |Infinite.2021.720p.WEB.H264-NAISU
Видео: MPEG-4 AVC, 2559 Кбит/с, 1280x528
Аудио 1: AC3, 6 ch, 448 Кбит/с | HDRezka Studio
Аудио 1: AC3, 6 ch, 640 Кбит/с | Яроцкий
Аудио 2: E-AC3, 6 ch, 640 Кбит/с |
Субтитры: Русские (Forced, Full) английские


[+] Инфо
Общее
Уникальный идентификатор                 : 250507638512693326870119069568576329633 (0xBC760427B5DE17BEA829FEF6FD2517A1)
Полное имя                               : infinite.(2021).720p.WEB-DL_P,A..mkv
Формат                                   : Matroska
Версия формата                           : Version 4
Размер файла                             : 3,19 Гбайт
Продолжительность                        : 1 ч. 46 м.
Общий поток                              : 4 290 Кбит/сек
Название фильма                          : infinite.(2021).720p.WEB-DL_P,A.
Дата кодирования                         : UTC 2021-06-19 09:06:15
Программа кодирования                    : mkvmerge v53.0.0 ('Fool's Gold') 64-bit
Библиотека кодирования                   : libebml v1.4.1 + libmatroska v1.6.2

Видео
Идентификатор                            : 1
Формат                                   : AVC
Формат/Информация                        : Advanced Video Codec
Профиль формата                          : High@L3.1
Настройки формата                        : CABAC / 5 Ref Frames
Параметр CABAC формата                   : Да
Параметр RefFrames формата               : 5 кадров
Идентификатор кодека                     : V_MPEG4/ISO/AVC
Продолжительность                        : 1 ч. 46 м.
Битрейт                                  : 2 559 Кбит/сек
Ширина                                   : 1 280 пикселей
Высота                                   : 528 пикселей
Соотношение сторон                       : 2,40:1
Соотношение сторон в оригинале           : 2,40:1
Режим частоты кадров                     : Постоянный
Частота кадров                           : 24,000 кадра/сек
Цветовое пространство                    : YUV
Субдискретизация насыщенности            : 4:2:0
Битовая глубина                          : 8 бит
Тип развёртки                            : Прогрессивная
Бит/(Пиксели*Кадры)                      : 0.158
Размер потока                            : 1,90 Гбайт (60%)
Default                                  : Да
Forced                                   : Нет
Цветовой диапазон                        : Limited
Основные цвета                           : BT.709
Характеристики трансфера                 : BT.709
Коэффициенты матрицы                     : BT.709

Аудио #1
Идентификатор                            : 2
Формат                                   : AC-3
Формат/Информация                        : Audio Coding 3
Коммерческое название                    : Dolby Digital
Идентификатор кодека                     : A_AC3
Продолжительность                        : 1 ч. 46 м.
Вид битрейта                             : Постоянный
Битрейт                                  : 448 Кбит/сек
Каналы                                   : 6 каналов
Channel layout                           : L R C LFE Ls Rs
Частота                                  : 48,0 КГц
Частота кадров                           : 31,250 кадров/сек (1536 SPF)
Метод сжатия                             : С потерями
Размер потока                            : 341 Мбайт (10%)
Заголовок                                : [MVO] HDRezka Studio
Язык                                     : Russian
Service kind                             : Complete Main
Default                                  : Да
Forced                                   : Нет

Аудио #2
Идентификатор                            : 3
Формат                                   : AC-3
Формат/Информация                        : Audio Coding 3
Коммерческое название                    : Dolby Digital
Идентификатор кодека                     : A_AC3
Продолжительность                        : 1 ч. 46 м.
Вид битрейта                             : Постоянный
Битрейт                                  : 640 Кбит/сек
Каналы                                   : 6 каналов
Channel layout                           : L R C LFE Ls Rs
Частота                                  : 48,0 КГц
Частота кадров                           : 31,250 кадров/сек (1536 SPF)
Метод сжатия                             : С потерями
Размер потока                            : 487 Мбайт (15%)
Заголовок                                : [AVO] Яроцкий
Язык                                     : Russian
Service kind                             : Complete Main
Default                                  : Нет
Forced                                   : Нет

Аудио #3
Идентификатор                            : 4
Формат                                   : E-AC-3
Формат/Информация                        : Enhanced AC-3
Коммерческое название                    : Dolby Digital Plus
Идентификатор кодека                     : A_EAC3
Продолжительность                        : 1 ч. 46 м.
Вид битрейта                             : Постоянный
Битрейт                                  : 640 Кбит/сек
Каналы                                   : 6 каналов
Channel layout                           : L R C LFE Ls Rs
Частота                                  : 48,0 КГц
Частота кадров                           : 31,250 кадров/сек (1536 SPF)
Метод сжатия                             : С потерями
Размер потока                            : 487 Мбайт (15%)
Язык                                     : English
Service kind                             : Complete Main
Default                                  : Нет
Forced                                   : Нет

Текст #1
Идентификатор                            : 5
Формат                                   : UTF-8
Идентификатор кодека                     : S_TEXT/UTF8
Идентификатор кодека/Информация          : UTF-8 Plain Text
Продолжительность                        : 1 ч. 35 м.
Битрейт                                  : 1 бит/сек
Count of elements                        : 18
Размер потока                            : 766 байт (0%)
Заголовок                                : [Forced]
Язык                                     : Russian
Default                                  : Да
Forced                                   : Да

Текст #2
Идентификатор                            : 6
Формат                                   : UTF-8
Идентификатор кодека                     : S_TEXT/UTF8
Идентификатор кодека/Информация          : UTF-8 Plain Text
Продолжительность                        : 1 ч. 36 м.
Битрейт                                  : 74 бит/сек
Count of elements                        : 947
Размер потока                            : 53,1 Кбайт (0%)
Заголовок                                : [Full]
Язык                                     : Russian
Default                                  : Нет
Forced                                   : Нет

Текст #3
Идентификатор                            : 7
Формат                                   : UTF-8
Идентификатор кодека                     : S_TEXT/UTF8
Идентификатор кодека/Информация          : UTF-8 Plain Text
Продолжительность                        : 1 ч. 40 м.
Битрейт                                  : 47 бит/сек
Count of elements                        : 1128
Размер потока                            : 35,0 Кбайт (0%)
Заголовок                                : English
Язык                                     : English
Default                                  : Нет
Forced                                   : Нет




Скриншоты:
[+] Всего файлов в раздаче - 1:

Похожие раздачи по запросу - бесконечность:
2022-01-23 U Бесконечность / Infinite (2021) BDRip 720p | D, P, A, L2 6.97 GB ↑ 38 ↓ 13
2022-01-23 U Бесконечность / Infinite (2021) BDRip 1080p | D, P, A, L2 13.24 GB ↑ 30 ↓ 12
2022-01-22 U Бесконечность / Infinite (2021) BDRip от Twister & ExKinoRay | D 2К1.46 GB ↑ 46 ↓ 15
2022-01-22 U Бесконечность / Infinite (2021) BDRip от New-Team | D 1.46 GB ↑ 34 ↓ 13
2022-01-21 U Бесконечность / Infinite (2021) BDRip 1080p от селезень | D 10.10 GB ↑ 59 ↓ 120
2022-01-21 U Бесконечность / Infinite (2021) BDRip 720p от селезень | D 5.27 GB ↑ 76 ↓ 85
2022-01-21 U Бесконечность / Infinite (2021) BDRip-AVC от HELLYWOOD | iTunes 1.41 GB ↑ 82 ↓ 21

Отзывы
Зарегистрируйтесь чтобы добавить комментарий.
Торрент клиент
byTorrent - программа для загрузки торрент-файлов.

Скачать byTorrent


Поддержи torrent.by
российских рублей
(300 российских рублей это 4$)

Обратная связь rss
End ©