↑↓torrent.by
Поиск
Логин: Регистрация
Пароль: Восстановить пароль

Турист (2021) HDTVRip от Files-x

Скачать turist-2021-hdtvrip-ot-files-x.torrent
U Магнитная ссылка Размер: 1.38 GB Раздают: 300 Качают: 296 Добавлен: 2021-05-20 11:53:10
Турист (2021) HDTVRip от Files-x

Оригинальное название: Турист
Год выхода: 2021
Жанр: Боевик
Режиссер: Андрей Щербинин
В ролях: Алексей Шевченков, Александр Барановский, Владимир Петров (VIII), Евгений Терских, Флавия-Гертруда Мбайабе, Уилфред Уильямс, Сергей Воробьёв (IV), Георгий Болонев, Алексей Удальцов, Глеб Темнов, Денис Волков (II), Сергей Гарусов, Сергей Павлов (II), Олег Поддубный, Алексей Червяков, Константин Бараев, Павел Ткаченко, Алексей Румянцев, Павел Богомолов, Сергей Бледных, Евгений Антонов

О фильме: В Центральноафриканской Республике (ЦАР) работают российские инструкторы, обучающие армию этой страны по просьбе местного правительства. Россия отправляет несколько сотен военных и тяжёлую технику в ЦАР, чтобы поддержать правительство. На базу высаживаются новички, среди них – бывший сотрудник полиции, 27-летний Гриша Дмитриев. Тем временем, ситуация в республике обостряется в преддверии президентских и парламентских выборов...

Страна: Россия
Студия: Производство ООО "Паритет Фильм"
Продолжительность: 01:35:02
Перевод: Не требуется

Файл
Кодек: XviD
Качество: HDTVRip
Видео: XviD, ~ 1871 Кбит/с, 720x304, 25 кадр/с
Звук: AC3, 2 ch, 192 Кбит/с

Релиз:


[+] MediaInfo

General
Complete name                    : C:Турист.s01.(2021).HDTVRip.by.Nicodem.Files-x.avi
Format                           : AVI
Format/Info                      : Audio Video Interleave
File size                        : 1.38 GiB
Duration                         : 1h 35mn
Overall bit rate                 : 2 073 Kbps
Writing application              : VirtualDubMod 1.5.10.3 | www.virtualdub-fr.org || (build 2550/release)
Writing library                  : VirtualDubMod build 2550/release

Video
ID                               : 0
Format                           : MPEG-4 Visual
Format profile                   : Advanced Simple@L5
Format settings, BVOP            : 1
Format settings, QPel            : No
Format settings, GMC             : No warppoints
Format settings, Matrix          : Custom
Codec ID                         : XVID
Codec ID/Hint                    : XviD
Duration                         : 1h 35mn
Bit rate                         : 1 871 Kbps
Width                            : 720 pixels
Height                           : 304 pixels
Display aspect ratio             : 2.35:1
Frame rate                       : 25.000 fps
Color space                      : YUV
Chroma subsampling               : 4:2:0
Bit depth                        : 8 bits
Scan type                        : Progressive
Compression mode                 : Lossy
Bits/(Pixel*Frame)               : 0.342
Stream size                      : 1.24 GiB (90%)
Writing library                  : XviD 73

Audio
ID                               : 1
Format                           : AC-3
Format/Info                      : Audio Coding 3
Mode extension                   : CM (complete main)
Codec ID                         : 2000
Duration                         : 1h 35mn
Bit rate mode                    : Constant
Bit rate                         : 192 Kbps
Channel(s)                       : 2 channels
Channel positions                : Front: L R
Sampling rate                    : 48.0 KHz
Bit depth                        : 16 bits
Compression mode                 : Lossy
Stream size                      : 131 MiB (9%)
Alignment                        : Split accross interleaves
Interleave, duration             : 40 ms (1.00 video frame)
Interleave, preload duration     : 500 ms



Скриншоты:
[+] Всего файлов в раздаче - 1:

Показать еще раздачи по запросу турист:
2021-06-29 U Турист (2021) WEB-DLRip-AVC 2.61 GB ↑ 165 ↓ 19
2021-06-28 U Турист (2021) WEB-DL 1080p от EniaHD 4.55 GB ↑ 142 ↓ 58
2021-05-30 U Турист (2021) WEB-DLRip от Files-x | iTunes 1.46 GB ↑ 47 ↓ 27
2021-05-28 U Турист (2021) WEB-DLRip-AVC от Files-x | iTunes 1.46 GB ↑ 368 ↓ 25
2021-05-26 U Турист (2021) WEB-DLRip-AVC | iTunes 1.41 GB ↑ 342 ↓ 59
2021-05-25 U Турист (2021) WEB-DLRip от ExKinoRay | iTunes 745.36 MB ↑ 326 ↓ 29
2021-05-25 U Турист (2021) WEB-DLRip от ELEKTRI4KA | iTunes 1.46 GB ↑ 332 ↓ 28

Отзывы
Зарегистрируйтесь чтобы добавить комментарий.
Программа byTorrent
  Описание byTorrent
Обратная связь
Copyleft ©