↑↓torrent.by
Поиск
Логин: Регистрация
Пароль: Восстановить пароль

Турист (2021) WEB-DL 1080p от EniaHD

Скачать turist-2021-web-dl-1080p-ot-eniahd.torrent
U Магнитная ссылка Размер: 4.55 GB Раздают: 142 Качают: 58 Добавлен: 2021-06-28 14:56:54
Турист (2021) WEB-DL 1080p от EniaHD

Название: Турист
Год выхода: 2021
Жанр:  боевик
Режиссёр: Андрей Батов
В ролях: Алексей Шевченков, Александр Барановский, Владимир Петров, Евгений Терских, Флавия-Гертруда Мбайабе, Уилфред Уильямс, Сергей Воробьёв, Георгий Болонев, Алексей Удальцов, Глеб Темнов, Денис Волков, Мак Армель, Бьян Веню, Сергей Гарусов, Сергей Павлов, Олег Поддубный, Алексей Червяков, Константин Бараев, Павел Ткаченко, Алексей Румянцев, Павел Богомолов, Сергей Бледных, Евгений Антонов

О фильме:
Декабрь 2020 года. Бывший сотрудник полиции Гриша Дмитриев в составе небольшой группы российских инструкторов прибывает в Центральноафриканскую Республику. Грише командировка не кажется сложной, ведь в задачи инструкторов входит только обучение солдат местной армии основам тактики и методам ведения боя. Однако все с самого начала идет не так. Несколько бандитских группировок идут на столицу, чтобы устроить в стране государственный переворот. Русские инструкторы совместно со своими подопечными дают отпор бандитам. Но для Гриши, никогда не принимавшего участие в военных действиях, эта командировка превращается в настоящий ад.

Страна: Россия
Студия: Паритет, Триикс Медиа
Продолжительность: 01:39:09
Перевод: Не требуется

Файл
Контейнер: MKV
Качество: WEB-DL 1080p
Видео: MPEG-4 (AVC), 1920х1080 (16:9), 24 fps, ~ 6304 kbps, 0.127 bit/pixel
Аудио: AAC, 44.1 kHz, 2 ch, 258 Kbps
Субтитры: Русские (Forced)

Релиз:


[+] MediaInfo
General
Unique ID                                : 70297882552027231784055156753416380226 (0x34E2E1343DE6AE95302F36F1A5F8DF42)
Complete name                            : Turist.2021.1080p.WEB-DL.AAC2.0.H.264-EniaHD.mkv
Format                                   : Matroska
Format version                           : Version 4
File size                                : 4.55 GiB
Duration                                 : 1 h 39 min
Overall bit rate                         : 6 564 kb/s
Writing application                      : mkvmerge v58.0.0 ('Supper's Ready') 64-bit
Writing library                          : libebml v1.4.2 + libmatroska v1.6.4

Video
ID                                       : 1
Format                                   : AVC
Format/Info                              : Advanced Video Codec
Format profile                           : High@L4
Format settings                          : CABAC / 2 Ref Frames
Format settings, CABAC                   : Yes
Format settings, Reference frames        : 2 frames
Codec ID                                 : V_MPEG4/ISO/AVC
Duration                                 : 1 h 39 min
Bit rate                                 : 6 304 kb/s
Width                                    : 1 920 pixels
Height                                   : 1 080 pixels
Display aspect ratio                     : 16:9
Frame rate mode                          : Constant
Frame rate                               : 24.000 FPS
Color space                              : YUV
Chroma subsampling                       : 4:2:0
Bit depth                                : 8 bits
Scan type                                : Progressive
Bits/(Pixel*Frame)                       : 0.127
Stream size                              : 4.37 GiB (96%)
Writing library                          : x264 core 159 r2991 1771b55
Default                                  : Yes
Forced                                   : No
Color range                              : Limited
Color primaries                          : BT.709
Transfer characteristics                 : BT.709
Matrix coefficients                      : BT.709

Audio
ID                                       : 2
Format                                   : AAC LC
Format/Info                              : Advanced Audio Codec Low Complexity
Codec ID                                 : A_AAC-2
Duration                                 : 1 h 39 min
Bit rate                                 : 258 kb/s
Channel(s)                               : 2 channels
Channel layout                           : L R
Sampling rate                            : 44.1 kHz
Frame rate                               : 43.066 FPS (1024 SPF)
Compression mode                         : Lossy
Stream size                              : 183 MiB (4%)
Language                                 : Russian
Default                                  : Yes
Forced                                   : No

Text
ID                                       : 3
Format                                   : UTF-8
Codec ID                                 : S_TEXT/UTF8
Codec ID/Info                            : UTF-8 Plain Text
Duration                                 : 1 h 32 min
Bit rate                                 : 2 b/s
Count of elements                        : 26
Stream size                              : 1.99 KiB (0%)
Title                                    : Forced
Language                                 : Russian
Default                                  : Yes
Forced                                   : No

Menu
00:00:00.000                             : Глава 1
00:02:30.208                             : Глава 2
00:09:02.710                             : Глава 3
00:15:44.630                             : Глава 4
00:20:52.500                             : Глава 5
00:27:01.590                             : Глава 6
00:34:37.290                             : Глава 7
00:38:49.750                             : Глава 8
00:42:49.090                             : Глава 9
00:51:48.630                             : Глава 10
00:59:37.350                             : Глава 11
01:04:22.371                             : Глава 12
01:12:25.460                             : Глава 13
01:18:47.750                             : Глава 14
01:23:59.994                             : Глава 15
01:31:05.494                             : Глава 16
01:35:08.369                             : Глава 17



[+] Жители ЦАР поблагодарили Россию за помощь в освобождении от боевиков
МОСКВА, 13 фев - РИА Новости. Тысячи человек приняли участие в митинге в столице Центральноафриканской Республики Банги в знак благодарности за помощь российских инструкторов правительственной армии в освобождении от боевиков магистрали, связывающей страну с Камеруном, и ключевых городов, сообщил РИА Новости посол РФ в ЦАР Владимир Титоренко.
Накануне состоявшихся 27 декабря 2020 года президентских и парламентских выборов в ЦАР серьезно осложнилась военно-политическая обстановка. Незаконные вооруженные формирования (НВФ) при поддержке оппозиции предприняли шаги, направленные на дестабилизацию ситуации и срыв электорального процесса. В ответ на просьбу центральноафриканских властей Россия направила в страну дополнительно 300 инструкторов для обучения военнослужащих национальной армии, задействованных в обеспечении безопасности накануне и в ходе проведения всеобщих выборов, а также четыре вертолета Ми-8 с экипажами и обслуживающим инженерно-техническим персоналом. В январе РФ вывела вертолеты Минобороны из страны.
По оценке российского посла, в митинге в Банги участвовали порядка 3 тысяч человек. Среди них были в основном студенты и школьники. Они вышли на улицы с флагами России и транспарантами.
Надписи на транспарантах гласили: "За несколько месяцев наша армия при поддержке России и Руанды сделала то, что не смогла сделать МООНСЦАР за 8 лет", "Да здравствуют Россия и Руанда", "Нет диалога с террористами из "Коалиции патриотов за перемены". Кроме того, звучали требования об отмене эмбарго на поставку оружия. На митинге также выступил мэр Банги.
Организаторы манифестации вручили российскому дипломату послание со словами благодарности.
"Мы, школьники и студенты Центральноафриканской Республики, выражаем свою искреннюю благодарность российским военным специалистам за их постоянную поддержку нашим силам безопасности в действиях по полному освобождению от террористов, что позволило освободить нашу дорогу к школе", - говорится в нем.
Ранее правительство ЦАР распространило коммюнике, в котором сообщалось, что вооруженные силы республики разблокировали ключевую магистраль, которая связывала столицу страны Банги с соседним Камеруном. Отмечалось, что после городов Боали, Боссембеле, Боссемптеле, Йалоке и Буар вооружённые силы ЦАР освободили Белоко, что открыло дорогу до Камеруна. Движение на маршруте было заблокировано с декабря.
В центрально-восточной части страны после освобождения города Бамбари военные начали продвижение к Иппи.
Конституционный суд ЦАР 18 января огласил окончательные итоги состоявшихся в стране 27 декабря 2020 года президентских выборов. Победу одержал действующий глава государства Фостен Арканж Туадера, набравший в первом туре 53,16% голосов избирателей. Его ближайшему сопернику – лидеру партии "Союз за центральноафриканское возрождение" Анисе Жорж Дологеле – оказали поддержку 21,9% граждан ЦАР. Оппозиция и вооруженные группировки повстанцев в ЦАР не признали итоги выборов. Ранее правительство сообщило о попытках повстанцев атаковать Банги. Им удалось захватить несколько населенных пунктов, позднее часть из них, по сообщению официальных властей, была освобождена.



[+] Пример форс. субтитров

НТВ HD


WEB-DL




Скриншоты:
[+] Всего файлов в раздаче - 1:

Показать еще раздачи по запросу турист:
2021-06-29 U Турист (2021) WEB-DLRip-AVC 2.61 GB ↑ 165 ↓ 19
2021-05-30 U Турист (2021) WEB-DLRip от Files-x | iTunes 1.46 GB ↑ 47 ↓ 27
2021-05-28 U Турист (2021) WEB-DLRip-AVC от Files-x | iTunes 1.46 GB ↑ 368 ↓ 25
2021-05-26 U Турист (2021) WEB-DLRip-AVC | iTunes 1.41 GB ↑ 342 ↓ 59
2021-05-25 U Турист (2021) WEB-DLRip от ExKinoRay | iTunes 745.36 MB ↑ 327 ↓ 29
2021-05-25 U Турист (2021) WEB-DLRip от ELEKTRI4KA | iTunes 1.46 GB ↑ 332 ↓ 28
2021-05-25 U Турист (2021) WEB-DL 720p от ELEKTRI4KA | iTunes 2.98 GB ↑ 114 ↓ 23

Отзывы
Зарегистрируйтесь чтобы добавить комментарий.
Программа byTorrent
  Описание byTorrent
Обратная связь
Copyleft ©