↑↓torrent.by
Поиск
Логин: Регистрация
Пароль: Восстановить пароль

Турист (2021) WEB-DLRip-AVC

Скачать turist-2021-web-dlrip-avc.torrent
U Магнитная ссылка Размер: 2.61 GB Раздают: 165 Качают: 19 Добавлен: 2021-06-29 17:08:48
Турист (2021) WEB-DLRip-AVC

Название: Турист
Год выхода: 2021
Жанр:  Боевик
Режиссер: Андрей Щербинин
В ролях: Алексей Шевченков, Александр Барановский, Владимир Петров (VIII), Евгений Терских, Флавия-Гертруда Мбайабе, Уилфред Уильямс, Сергей Воробьёв (IV), Георгий Болонев, Алексей Удальцов, Глеб Темнов, Денис Волков (II), Сергей Гарусов, Сергей Павлов (II), Олег Поддубный, Алексей Червяков, Константин Бараев, Павел Ткаченко, Алексей Румянцев, Павел Богомолов, Сергей Бледных, Евгений Антонов.

О фильме:
В Центральноафриканской Республике (ЦАР) работают российские инструкторы, обучающие армию этой страны по просьбе местного правительства. Россия отправляет несколько сотен военных и тяжёлую технику в ЦАР, чтобы поддержать правительство. На базу высаживаются новички, среди них – бывший сотрудник полиции, 27-летний Гриша Дмитриев. Тем временем, ситуация в республике обостряется в преддверии президентских и парламентских выборов...

Страна: Россия
Студия: Производство ООО "Паритет Фильм"
Продолжительность: 01:39:09
Перевод: Не требуется
► Без Рекламы!

Файл                                      
Формат: Matroska
Качество: WEB-DLRip-AVC [Turist.2021.1080p.WEB-DL.AAC2.0.H.264-EniaHD]
Видео: 1024x428 at 24.000 fps, x264@L4.1, ~3500 kbps, 0.333 bpp
Аудио: AAC, 44.1 kHz, 2 ch, 258 Kbps
Субтитры: Русские (Forced)

***Релиз от: -=DoMiNo=-


[+] M/I
x264 [info]: frame I:1085  Avg QP:15.32  size: 87468
x264 [info]: frame P:52493 Avg QP:18.62  size: 30197
x264 [info]: frame B:89210 Avg QP:20.02  size: 10354
x264 [info]: consecutive B-frames: 15.0% 10.9% 17.9% 19.1% 10.5% 23.2%  1.7%  0.4%  0.5%  0.1%  0.3%  0.5%

General
Format                      : Matroska
Format version              : Version 4
File size                   : 2.61 GiB
Duration                    : 1 h 39 min
Overall bit rate            : 3 762 kb/s
Movie name                  : Турист.(2021).WEB-DLRip-AVC.[-=DoMiNo=-]
Encoded date                : UTC 2021-06-28 20:30:55
Writing application         : mkvmerge v58.0.0 ('Supper's Ready') 64-bit
Writing library             : libebml v1.4.2 + libmatroska v1.6.4
Cover                       : Yes
Attachments                 : Cover.png / Cover 2.jpg

Video
ID                          : 1
Format                      : AVC
Format/Info                 : Advanced Video Codec
Format profile              : High@L4.1
Format settings             : CABAC / 16 Ref Frames
Format settings, CABAC      : Yes
Format settings, Reference  : 16 frames
Codec ID                    : V_MPEG4/ISO/AVC
Duration                    : 1 h 39 min
Bit rate                    : 3 500 kb/s
Width                       : 1 024 pixels
Height                      : 428 pixels
Display aspect ratio        : 2.40:1
Frame rate mode             : Constant
Frame rate                  : 24.000 FPS
Color space                 : YUV
Chroma subsampling          : 4:2:0
Bit depth                   : 8 bits
Scan type                   : Progressive
Bits/(Pixel*Frame)          : 0.333
Stream size                 : 2.42 GiB (93%)
Title                       : -=DoMiNo=-
Writing library             : x264 core 164 r3065 ae03d92
Encoding settings           : cabac=1 / ref=16 / deblock=1:-2:-2 / analyse=0x3:0x133 / me=umh / subme=11 / psy=1 / psy_rd=1.00:0.20 / mixed_ref=1 / me_range=48 / chroma_me=1 / trellis=2 / 8x8dct=1 / cqm=0 / deadzone=21,11 / fast_pskip=0 / chroma_qp_offset=-3 / threads=13 / lookahead_threads=3 / sliced_threads=0 / nr=0 / decimate=0 / interlaced=0 / bluray_compat=0 / constrained_intra=0 / bframes=11 / b_pyramid=2 / b_adapt=2 / b_bias=0 / direct=3 / weightb=1 / open_gop=0 / weightp=2 / keyint=250 / keyint_min=24 / scenecut=40 / intra_refresh=0 / rc=2pass / mbtree=0 / bitrate=3500 / ratetol=1.0 / qcomp=0.70 / qpmin=0 / qpmax=69 / qpstep=4 / cplxblur=20.0 / qblur=0.5 / ip_ratio=1.40 / pb_ratio=1.30 / aq=3:1.00
Language                    : Russian
Default                     : Yes
Forced                      : No
Color range                 : Limited
Color primaries             : BT.709
Transfer characteristics    : BT.709
Matrix coefficients         : BT.709

Audio
ID                          : 2
Format                      : AAC LC
Format/Info                 : Advanced Audio Codec Low Complexity
Codec ID                    : A_AAC-2
Duration                    : 1 h 39 min
Bit rate                    : 258 kb/s
Channel(s)                  : 2 channels
Channel layout              : L R
Sampling rate               : 44.1 kHz
Frame rate                  : 43.066 FPS (1024 SPF)
Compression mode            : Lossy
Stream size                 : 183 MiB (7%)
Language                    : Russian
Default                     : Yes
Forced                      : Yes

Text
ID                          : 3
Format                      : UTF-8
Codec ID                    : S_TEXT/UTF8
Codec ID/Info               : UTF-8 Plain Text
Duration                    : 1 h 32 min
Bit rate                    : 2 b/s
Count of elements           : 26
Stream size                 : 1.99 KiB (0%)
Title                       : Forced
Language                    : Russian
Default                     : Yes
Forced                      : Yes

Menu
00:00:00.000                : Глава 1
00:02:30.208                : Глава 2
00:09:02.710                : Глава 3
00:15:44.630                : Глава 4
00:20:52.500                : Глава 5
00:27:01.590                : Глава 6
00:34:37.290                : Глава 7
00:38:49.750                : Глава 8
00:42:49.090                : Глава 9
00:51:48.630                : Глава 10
00:59:37.350                : Глава 11
01:04:22.371                : Глава 12
01:12:25.460                : Глава 13
01:18:47.750                : Глава 14
01:23:59.994                : Глава 15
01:31:05.494                : Глава 16
01:35:08.369                : Глава 17



Скриншоты:
[+] Всего файлов в раздаче - 1:

Показать еще раздачи по запросу турист:
2021-06-28 U Турист (2021) WEB-DL 1080p от EniaHD 4.55 GB ↑ 142 ↓ 58
2021-05-30 U Турист (2021) WEB-DLRip от Files-x | iTunes 1.46 GB ↑ 47 ↓ 27
2021-05-28 U Турист (2021) WEB-DLRip-AVC от Files-x | iTunes 1.46 GB ↑ 368 ↓ 25
2021-05-26 U Турист (2021) WEB-DLRip-AVC | iTunes 1.41 GB ↑ 342 ↓ 59
2021-05-25 U Турист (2021) WEB-DLRip от ExKinoRay | iTunes 745.36 MB ↑ 327 ↓ 29
2021-05-25 U Турист (2021) WEB-DLRip от ELEKTRI4KA | iTunes 1.46 GB ↑ 332 ↓ 28
2021-05-25 U Турист (2021) WEB-DL 720p от ELEKTRI4KA | iTunes 2.98 GB ↑ 114 ↓ 23

Отзывы
Зарегистрируйтесь чтобы добавить комментарий.
Программа byTorrent
  Описание byTorrent
Обратная связь
Copyleft ©