↑↓torrent.by
Поиск
Логин: Регистрация
Пароль: Восстановить пароль

Тетрадь смерти / Death Note [S01] (2006) HDRip от Deadmauvlad | D | СВ-дубль

Скачать tetrad-smerti-death-note-s01-2006-hdrip-ot-deadmauvlad-d-sv-dubl.torrent
U Магнитная ссылка Размер: 10.20 GB Раздают: 38 Качают: 17 Добавлен: 2021-07-01 08:40:31
Тетрадь смерти / Death Note [S01] (2006) HDRip от Deadmauvlad | D | СВ-дубль

Информация о фильме
Название: Тетрадь Смерти
Оригинальное название: Death Note
Год выпуска: 2006-2007
Выпуск: с 4 октября 2006 по 27 июня 2007
Трансляция: среда в 00:56 [ночной сеанс] на NTV
Жанр:  детектив, мистика, трагедия, триллер
Автор оригинала: Оба Цугуми
Снято по манге: Тетрадь Смерти
Режиссер: Тэцуро Араки
В ролях: Мамору Мияно, Каппэй Ямагути, Шидо Накамура, Ая Хирано, Харука Кудо, Киеси Кобаяси, Нодзому Сасаки, Норико Хидака, Наоя Утида, Ре Найто, Кэйдзи Фудзивара, Кадзуя Накай, Ай Сато, Кимико Сайто, Масуми Окамура, Наоко Мацуи, Кадзуки Яо, Тяфурин, Акэно Ватанабэ, Хироки Такахаси, Масаки Айдзава, Хидэо Исикава, Масару Икэда, Масая Мацукадзэ, Мицуру Огата, Аруно Тахара, Эйдзи Ханава, Хидэнобу Киути, Хидэюки Умэдзу, Хирофуми Нодзима, Хироси Отакэ, Хироюки Еко, Иссэй Футамата, Кэнъити Мацуяма, Киеюки Янада, Мики Нагасава, Ринтаро Ниси, Такаси Мацуяма, Такуя Киримото, Юкитоси Токумото

Описание: У старшеклассника Лайта Ягами в жизни есть всё: успехи в школе, популярность среди сверстниц, замечательные родители, блестящее будущее. Возможно, поэтому так тяжело ему жить в мире, полном несправедливости, и осознавать, что никакие законы не способны исправить людей – и очистить мир от зла. Но однажды юноша находит странную чёрную тетрадку и знакомится с её владельцем – синигами Рюком. Возможности «Тетради смерти» позволяют Лайту стать Кирой – загадочным и всеведущим убийцей, карающим преступников. Более того – изучив правила использования тетради, юноша успешно избегает ловушек, расставленных спецслужбами. Никто не может его поймать. У таинственного «L» никогда не было поражений: сохраняя инкогнито, он успешно распутывал самые трудные дела и помогал полиции. Появление Киры стало вызовом для его экстраординарных способностей. Итак, два весьма умных и одарённых молодых человека сталкиваются в смертельном противостоянии, и теперь каждая мелочь, каждая случайность может склонить весы на ту или другую сторону. На стороне Лайта – могущественная «Тетрадь Смерти». У «L» есть поддержка полиции и опыт. И никто не собирается проигрывать или сдаваться…

Страна: Япония
Студия: Madhouse
Продолжительность: 37 х ~ 00:22:00
Перевод: Профессиональный Дублированный (озвучено СВ-дубль по заказу Телеканал FAN)

Файл
Качество: HDRip  [**Исходник: BDRip 1080p by Moozzi2]
Контейнер: *AVI
Кодек: XviD
Видео:  720x400 (16:9), 23.976 fps, 1 534 kb/s (0.222 bit/pixel)
Аудио: AC-3, 48.0 kHz, 2 ch, 192 kb/s, CBR |  | Телеканал FAN
Субтитры: Отсутствуют

ЦитатаКто-то писал:*** Исходные записи предоставил Peter Rodgers.
*** Сведение: al1337 (серии 1-19), p1zrv (серии 20-37)
*** Без какой-либо рекламы!

Релиз / Автор рипа: Deadmauvlad


[+] Хронология

#1 >>>Тетрадь Смерти - ТВ (37 эп.), адаптация манги, 2006
#2 Тетрадь смерти: Финальный исход (Режиссёрская версия) - OVA (1 эп), компиляция, 2007
#3 Тетрадь Смерти - Преемники L - OVA (1 эп), компиляция, 2008



[+] Список серий
1. Перерождение
2. Противостояние
3. Сделка
4. Преследование
5. Тактика
6. Промах
7. Сгущающиеся тучи
8. Пристальный взгляд
9. Встреча
10. Подозрение
11. Штурм
12. Любовь
13. Признание
14. Друг
15. Игра
16. Решение
17. Казнь
18. Союзник
19. Мацуда
20. Замена
21. Выступление
22. Побуждение
23. Безумие
24. Возрождение
25. Тишина
26. Воспроизведение
27. Похищение
28. Нетерпение
29. Отец
30. Справедливость
31. Передача
32. Выбор
33. Насмешка
34. Надзор
35. Преступное намерение
36. 28 января
37. Новый мир



[+] MediaInfo

General
Complete name                            : Death.Note.S01.2007.Dub.FAN.HDRip.Deadmauvlad.Серия.01.avi
Format                                   : AVI
Format/Info                              : Audio Video Interleave
File size                                : 283 MiB
Duration                                 : 22 min 45 s
Overall bit rate                         : 1 735 kb/s
Director                                 : Encoder by Deadmauvlad
Writing application                      : VirtualDubMod 1.5.10.3 | www.virtualdub-fr.org || (build 2550/release)
Writing library                          : VirtualDubMod build 2550/release
Original source form/Name                : Аниме
Copyright                                : Encoder by Deadmauvlad
Comment                                  : Encoder by Deadmauvlad

Video
ID                                       : 0
Format                                   : MPEG-4 Visual
Format profile                           : Advanced Simple@L5
Format settings                          : BVOP1 / Custom Matrix
Format settings, BVOP                    : 1
Format settings, QPel                    : No
Format settings, GMC                     : No warppoints
Format settings, Matrix                  : Custom
Codec ID                                 : XVID
Codec ID/Hint                            : XviD
Duration                                 : 22 min 45 s
Bit rate                                 : 1 534 kb/s
Width                                    : 720 pixels
Height                                   : 400 pixels
Display aspect ratio                     : 16:9
Frame rate                               : 23.976 (24000/1001) FPS
Color space                              : YUV
Chroma subsampling                       : 4:2:0
Bit depth                                : 8 bits
Scan type                                : Progressive
Compression mode                         : Lossy
Bits/(Pixel*Frame)                       : 0.222
Stream size                              : 250 MiB (88%)
Writing library                          : XviD 73

Audio
ID                                       : 1
Format                                   : AC-3
Format/Info                              : Audio Coding 3
Commercial name                          : Dolby Digital
Codec ID                                 : 2000
Duration                                 : 22 min 45 s
Bit rate mode                            : Constant
Bit rate                                 : 192 kb/s
Channel(s)                               : 2 channels
Channel layout                           : L R
Sampling rate                            : 48.0 kHz
Frame rate                               : 31.250 FPS (1536 SPF)
Bit depth                                : 16 bits
Compression mode                         : Lossy
Stream size                              : 31.3 MiB (11%)
Alignment                                : Split accross interleaves
Interleave, duration                     : 42  ms (1.00 video frame)
Interleave, preload duration             : 500  ms



Скриншоты:
[+] Всего файлов в раздаче - 37:

Похожие раздачи по запросу - тетрадь:
2021-07-03 U Тетрадь Смерти / Death Note [01-37 из 37] (2006) DVDRip | AniFilm 13.83 GB ↑ 124 ↓ 24

Отзывы
Зарегистрируйтесь чтобы добавить комментарий.
Загрузите программу
  byTorrent
Обратная связь
Copyleft ©