torrent.by
Поиск торрента
Логин: Регистрация
Пароль: Восстановить пароль

MMA. UFC 201. Lawler vs. Woodley + Main Card [23.07] (2016) HDTV 1080 (RU/ENG)

 ↓  Скачать mma-ufc-201-lawler-vs-woodley-main-card-23-07-2016-hdtv-1080-ru-eng.torrent
U Магнитная ссылка Размер: 8.52 GB Раздают: 159 Качают: 72 Добавлен: 2016-07-31 23:02:26 Как качать

MMA. UFC 201. Lawler vs. Woodley + Main Card [23.07] (2016) HDTV 1080 (RU/ENG)

UFC 201
Lawler vs. Woodley
Main Card

Вид спорта: MMA
Участники: Main Card:
Robbie Lawler (c)(27-10, 1 NC) vs. Tyron Woodley (15-3)*
Rose Namajunas (6-2-0) vs. Karolina Kowalkiewicz (9-0-0)
Matt Brown (30-11) vs. Jake Ellenberger (20-14)
Francisco Rivera (11-6, 1 NC) vs. Erik Perez (15-6)
Ryan Benoit (8-4) vs. Fredy Serrano (3-0)

Комментарий: Русский / Английский

Описание: UFC 200. Lawler vs. Woodley + Main Card

Автор записи: dean10


Качество: HDTV
Формат: TS
Видео: 1920x1080i, H.264, 25 fps, ~ 6,8 Mbps
Аудио #1: MP2, 48 kHz, 2 ch, ~192.00 kbps
Аудио #2: MP2, 48 kHz, 2 ch, ~192.00 kbps

[+] Продолжительность
02:42:56

[+] Media Info
Полное имя                               : H:Other sportsUFC 201 - Lawler vs. Woodley_Main Card_30.07.2016_HDTV 1080i_RU_EN.ts
Формат                                   : MPEG-TS
Размер файла                             : 8,52 Гбайт
Продолжительность                        : 2 ч. 42 м.
Режим общего битрейта                    : Переменный
Общий поток                              : 7484 Кбит/сек

Видео
Идентификатор                            : 102 (0x66)
Идентификатор меню                       : 1234 (0x4D2)
Формат                                   : AVC
Формат/Информация                        : Advanced Video Codec
Профиль формата                          : High@L4
Параметр CABAC формата                   : Да
Параметр ReFrames формата                : 3 кадра
Идентификатор кодека                     : 27
Продолжительность                        : 2 ч. 42 м.
Вид битрейта                             : Постоянный
Битрейт                                  : 6860 Кбит/сек
Ширина                                   : 1920 пикселей
Высота                                   : 1080 пикселей
Соотношение сторон                       : 16:9
Частота кадров                           : 25,000 кадров/сек
Цветовое пространство                    : YUV
Субдискретизация насыщенности            : 4:2:0
Битовая глубина                          : 8 бит
Тип развёртки                            : MBAFF
Порядок развёртки                        : Верхнее поле первое
Бит/(Пиксели*Кадры)                      : 0.132
Размер потока                            : 7,65 Гбайт (90%)
Цветовой диапазон                        : Limited
Основные цвета                           : BT.709
Характеристики трансфера                 : BT.709
Коэффициенты матрицы                     : BT.709

Аудио #1
Идентификатор                            : 103 (0x67)
Идентификатор меню                       : 1234 (0x4D2)
Формат                                   : MPEG Audio
Версия формата                           : Version 1
Профиль формата                          : Layer 2
Идентификатор кодека                     : 3
Продолжительность                        : 2 ч. 42 м.
Вид битрейта                             : Постоянный
Битрейт                                  : 192 Кбит/сек
Каналы                                   : 2 канала
Частота                                  : 48,0 КГц
Метод сжатия                             : С потерями
Задержка видео                           : 16 мс.
Размер потока                            : 224 Мбайт (3%)
Язык                                     : det
Язык, дополнительно                      : Clean effects

Аудио #2
Идентификатор                            : 104 (0x68)
Идентификатор меню                       : 1234 (0x4D2)
Формат                                   : MPEG Audio
Версия формата                           : Version 1
Профиль формата                          : Layer 2
Идентификатор кодека                     : 3
Продолжительность                        : 2 ч. 42 м.
Вид битрейта                             : Постоянный
Битрейт                                  : 192 Кбит/сек
Каналы                                   : 2 канала
Частота                                  : 48,0 КГц
Метод сжатия                             : С потерями
Задержка видео                           : 16 мс.
Размер потока                            : 224 Мбайт (3%)
Язык                                     : det
Язык, дополнительно                      : Clean effects

Скриншоты:

[+] Всего файлов в раздаче - 1:
UFC 201 - Lawler vs. Woodley_Main Card_30.07.2016_HDTV 1080i_RU_EN.ts8.52 GB

Отзывы
1234567qwerg женя | Город: Орша
8 гигов качать , чтоб посмотреть как с одного удара один другого ушатал

Alien1279
Ждал с нетерпением , огромное спасибо !

Зарегистрируйтесь чтобы добавить комментарий.
Обратная связь