torrent.by
Поиск
Логин: Регистрация
Пароль: Восстановить пароль
Загрузка...

RAMMSTEIN VIDEO COLLECTION (Рамштайн сборник видеоклипов)

 ↓  Скачать rammstein-video-collection-ramshtayn-sbornik-videoklipov.torrent
U Магнитная ссылка Размер: 319.45 MB Раздают: 46 Качают: 114 Добавлен: 2016-09-17 19:16:10

Название: RAMMSTEIN VIDEO COLLECTION
Исполнитель: Rammstein
Жанр: Rock and Hard Rock
Страна: Германия
Контейнер: avi


Video-1: MPEG4 Video (H264) 1280x720 23.97fps [VideoHandler]
Video-2: MPEG4 Video (H264) 640x360 23.97fps [VideoHandler]
Audio: AAC 44100Hz stereo 191kbps [IsoMedia File Produced by Google, 5-11-2011 (eng)]

Track -list:

002_Rammstein - Haifisch (Official Video)
003_Rammstein - Ich Tu Dir Weh (Official Video)
004_Rammstein - Ich Will (Official Video)
005_Rammstein - Keine Lust (Official Video)
006_Rammstein - Links 2 3 4 (Official Video)
007_Rammstein - Mein Land (Official Video)
008_Rammstein - Mutter (Official Video)
009_Rammstein - Ohne Dich (Official Video)
010_Rammstein - Sonne (Official Video)
011_Rammstein - Rammstein
012_Rammstein - Rosenrot (Official Video)


[+] Files info
Files Info

Video
ID                               : 1
Format                           : AVC
Format/Info                      : Advanced Video Codec
Format profile                   : High@L3.1
Format settings, CABAC           : Yes
Format settings, ReFrames        : 1 frame
Codec ID                         : avc1
Codec ID/Info                    : Advanced Video Coding
Duration                         : 3mn 36s
Bit rate mode                    : Variable
Bit rate                         : 1 957 Kbps
Maximum bit rate                 : 4 487 Kbps
Width                            : 1 280 pixels
Height                           : 720 pixels
Display aspect ratio             : 16:9
Frame rate mode                  : Constant
Frame rate                       : 23.976 fps
Color space                      : YUV
Chroma subsampling               : 4:2:0
Bit depth                        : 8 bits
Scan type                        : Progressive
Bits/(Pixel*Frame)               : 0.089
Stream size                      : 50.5 MiB (91%)
Tagged date                      : UTC 2015-08-04 11:15:58

Audio
ID                               : 2
Format                           : AAC
Format/Info                      : Advanced Audio Codec
Format profile                   : LC
Codec ID                         : 40
Duration                         : 3mn 36s
Bit rate mode                    : Variable
Bit rate                         : 192 Kbps
Maximum bit rate                 : 205 Kbps
Channel(s)                       : 2 channels
Channel positions                : Front: L R
Sampling rate                    : 44.1 KHz
Compression mode                 : Lossy
Stream size                      : 4.95 MiB (9%)
Title                            : IsoMedia File Produced by Google, 5-11-2011
Language                         : English
Encoded date                     : UTC 2015-08-04 11:15:57
Tagged date                      : UTC 2015-08-04 11:15:58

Hgy-666-BR-A-LEXUS DiKImODi-ONE-DGI-DGIRI-96
[+] Всего файлов в раздаче - 14:
001_Rammstein - Amerika (Official Video).avi22.62 MB
002_Rammstein - Haifisch (Official Video).avi14.59 MB
003_Rammstein - Ich Tu Dir Weh (Official Video).avi19.73 MB
004_Rammstein - Ich Will (Official Video).avi18.62 MB
005_Rammstein - Keine Lust (Official Video).avi28.57 MB
006_Rammstein - Links 2 3 4 (Official Video).avi55.47 MB
007_Rammstein - Mein Land (Official Video).avi23.19 MB
008_Rammstein - Mutter (Official Video).avi9.72 MB
009_Rammstein - Ohne Dich (Official Video).avi24.78 MB
010_Rammstein - Sonne (Official Video).avi17.38 MB
011_Rammstein - Rammstein.avi38.93 MB
012_Rammstein - Rosenrot (Official Video).avi17.55 MB
Das Ich - Kannibale.avi9.56 MB
Rammstein - Seemann (Official Video).avi18.73 MB

Текущая раздача:
ДатаКомментарии    РазмерПиры
2016-09-17  ↓  RAMMSTEIN VIDEO COLLECTION (Рамштайн сборник видеоклипов) 319.45 MB ↑ 46 ↓ 114

Показать ещё раздачи по запросу - rammstein:
2017-05-22  ↓  Rammstein - Paris: Live (2017) BDRip 720p 7.39 GB ↑ 186 ↓ 135
2017-05-22  ↓  Rammstein - Paris: Live (2017) BDRip от GeneralFilm 2.17 GB ↑ 325 ↓ 110
2017-05-22  ↓  Rammstein - Paris: Live (2017) BDRip 1080p 11.74 GB ↑ 146 ↓ 135
2017-05-21  ↓  Rammstein - Paris: Live (2017) DVDRip от ImperiaFilm 1Комментарии1.80 GB ↑ 158 ↓ 111
2017-05-21  ↓  Rammstein - Paris: Live (2017) DVD9 7.78 GB ↑ 68 ↓ 58
2017-05-18  ↓  Rammstein - Paris: Live [2CD Special Edition] (2017) MP3 270.67 MB ↑ 78 ↓ 28
2016-02-21  ↓  Rammstein - Videos (1995-2012) BDRip 720р от SuperMin 5.09 GB ↑ 34 ↓ 32

Отзывы
Зарегистрируйтесь чтобы добавить комментарий.
Обратная связь