torrent.by
Поиск
Логин: Регистрация
Пароль: Восстановить пароль
Загрузка...

Уральские пельмени - Тесто под солнцем (2016) WEBRip 1080p от ExKinoRay

 ↓  Скачать uralskie-pelmeni-testo-pod-solncem-2016-webrip-1080p-ot-exkinoray.torrent
U Магнитная ссылка Размер: 2.23 GB Раздают: 155 Качают: 68 Добавлен: 2016-12-05 21:57:06
Уральские пельмени - Тесто под солнцем (2016) WEBRip 1080p от ExKinoRay

Оригинальное название: Уральские пельмени
Жанр:  ТВ-шоу, юмор, сатира, развлекательный
Год выхода: 2016
Режиссер: Анастастия Ширина, Леонид Коновалов
В ролях: Дмитрий Брекоткин, Сергей Ершов, Сергей Исаев, Сергей Калугин, Вячеслав Мясников, Александр Попов, Андрей Рожков, Дмитрий Соколов, Максим Ярица, Юлия Михалкова, Стефания-Марьяна Гурска.

Описание: Они могут сложить из полотенец не только лебедя, а дополнительное койко-место для друга. Они едут отдыхать не за границу, а за буйки. Они так сильно аплодируют пилотам, что пилоты взлетают и производят посадку на бис. Эти люди начинают кататься на бананах уже на рынке. Они экономят на средствах от загара и на пляже просто не снимают одежду. Они сгорают не на солнце, а на утро от стыда. Чтобы даже в кипятке быть на поверхности, они назвали свою яхту «Пельмени», потому что они – Шоу «Уральские Пельмени» в летней программе «Тесто под солнцем».


Выпущено: Россия, YBW Group, СТС
Продолжительность: 01:11:05
Перевод: Не требуется

Файл
Кодек: x264
Качество: WEBRip (1080p)
Видео: MPEG-4 AVC, 4429 Kbps, 1920x1080
Звук: AC3, 2 ch, 192 Кбит/с
[+] Инфо файл
Общее
Уникальный идентификатор                 : 217319206446929232553972565844466921793 (0xA37E281EB6D4CDB5838631D8D924F141)
Полное имя                               : D:КлипыУральские Пельмени.Тесто под солнцем - 2016.WEBRip (1080p) by ExKinoRay.mkv
Формат                                   : Matroska
Версия формата                           : Version 4 / Version 2
Размер файла                             : 2,23 Гбайт
Продолжительность                        : 1 ч. 11 м.
Общий поток                              : 4491 Кбит/сек
Дата кодирования                         : UTC 2016-12-05 12:45:37
Программа кодирования                    : mkvmerge v9.6.0 ('Slave To Your Mind') 64bit
Библиотека кодирования                   : libebml v1.3.4 + libmatroska v1.4.5
DURATION                                 : 01:11:05.517000000
NUMBER_OF_FRAMES                         : 122467
NUMBER_OF_BYTES                          : 102372412
_STATISTICS_WRITING_APP                  : mkvmerge v9.6.0 ('Slave To Your Mind') 64bit
_STATISTICS_WRITING_DATE_UTC             : 2016-12-05 12:45:37
_STATISTICS_TAGS                         : BPS DURATION NUMBER_OF_FRAMES NUMBER_OF_BYTES

Видео
Идентификатор                            : 1
Формат                                   : AVC
Формат/Информация                        : Advanced Video Codec
Профиль формата                          : High@L4.0
Параметр CABAC формата                   : Да
Параметр ReFrames формата                : 2 кадра
Идентификатор кодека                     : V_MPEG4/ISO/AVC
Продолжительность                        : 1 ч. 11 м.
Битрейт                                  : 4210 Кбит/сек
Ширина                                   : 1920 пикселей
Высота                                   : 1080 пикселей
Соотношение сторон                       : 16:9
Режим частоты кадров                     : Постоянный
Частота кадров                           : 25,000 кадров/сек
Цветовое пространство                    : YUV
Субдискретизация насыщенности            : 4:2:0
Битовая глубина                          : 8 бит
Тип развёртки                            : Прогрессивная
Бит/(Пиксели*Кадры)                      : 0.081
Размер потока                            : 2,09 Гбайт (94%)
Default                                  : Да
Forced                                   : Нет
Основные цвета                           : BT.709
Характеристики трансфера                 : BT.709
Коэффициенты матрицы                     : BT.709

Аудио
Идентификатор                            : 2
Формат                                   : AC-3
Формат/Информация                        : Audio Coding 3
Расширение режима                        : CM (complete main)
Параметр Endianness формата              : Big
Идентификатор кодека                     : A_AC3
Продолжительность                        : 1 ч. 11 м.
Вид битрейта                             : Постоянный
Битрейт                                  : 192 Кбит/сек
Каналы                                   : 2 канала
Расположение каналов                     : Front: L R
Частота                                  : 44,1 КГц
Битовая глубина                          : 16 бит
Метод сжатия                             : С потерями
Размер потока                            : 97,6 Мбайт (4%)
Язык                                     : Russian
Default                                  : Да
Forced                                   : Нет

Скриншоты:
[+] Всего файлов в раздаче - 1:
Уральские Пельмени.Тесто под солнцем - 2016.WEBRip (1080p) by ExKinoRay.mkv2.23 GB

Текущая раздача:
ДатаКомментарии    РазмерПиры
2016-12-05  ↓  Уральские пельмени - Тесто под солнцем (2016) WEBRip 1080p от ExKinoRay 2.23 GB ↑ 155 ↓ 68

Показать ещё раздачи по запросу - уральские:
2017-06-13  ↓  Уральские Пельмени - Королевство кривых кулис. 1 часть (2017) WEBRip 1080p 2Комментарии2.15 GB ↑ 794 ↓ 347
2017-05-13  ↓  Уральские пельмени - Будьте бобры (2017) WEB-DL 720p 1.21 GB ↑ 817 ↓ 119
2017-05-13  ↓  Уральские Пельмени - Будьте бобры (2017) WEBRip 1080p 2.21 GB ↑ 235 ↓ 163
2017-05-11  ↓  Уральские пельмени - Спасите наши уши (2017) WEB-DLRip от ImperiaFilm 889.03 MB ↑ 216 ↓ 71
2017-05-09  ↓  Уральские пельмени - Спасите наши уши (2017) WEB-DL 1080p от GeneralFilm 2.31 GB ↑ 517 ↓ 17
2017-05-09  ↓  Уральские пельмени - Спасите наши уши (2017) WEB-DL 720p от GeneralFilm 1.25 GB ↑ 419 ↓ 195
2017-05-01  ↓  Уральские пельмени - Принцесса огорошена (2017) SATRip 913.09 MB ↑ 2001 ↓ 19

Отзывы
Зарегистрируйтесь чтобы добавить комментарий.
Обратная связь