torrent.by
Поиск торрента
Логин: Регистрация
Пароль: Восстановить пароль

Новый Comedy Club [эфир от 09.12] (2016) WEB-DLRip 720p от OlLandGroup

 ↓  Скачать novyy-comedy-club-efir-ot-09-12-2016-web-dlrip-720p-ollandgroup.torrent
Как качать Размер: 1.26 GB Раздают: 445 Качают: 103 Добавлен: 2016-12-10 14:21:59

Новый Comedy Club [эфир от 09.12] (2016) WEB-DLRip 720p от OlLandGroup

Оригинальное название: Comedy Club
Жанр:  Юмористическое шоу
Дата выхода в эфир: 09.12.2016
Режиссер: Гарик Мартиросян
Ведущие: Гарик Харламов, Павел Воля
В ролях: Сергей Светлаков, Семен Слепаков, Группа USB - United Sexy Boys, Сергей Гореликов, Павел Воля, Тимур Батрутдинов, Виктор Васильев и Дмитрий Хрусталев, Дуэт «Рома и Леша», Зураб Матуа, Андрей Аверин, Дмитрий «Люсёк» Сорокин, Александр Незлобин и Элвис

Описание: На ТНТ стартует новый сезон Comedy Club. Отныне каждый выпуск шоу будет посвящен определенной тематике: мир моды и кино, День космонавтики, 1 апреля, 8 марта и даже выпуск целиком посвященный дню рождения одного из резидентов. Не пропусти! Самое популярное комедийное шоу на российском телевидении возвращается с абсолютно новой программой.

Выпущено: ТНТ, "Comedy Club Production"
Продолжительность: 00:47:22
Язык: Русский

Файл
Кодек: x264
Качество: WEB-DLRip 720p
Видео: MPEG-4 AVC, 3504 Кбит/с, 1280x720
Аудио: AC3, 2 ch, 192 Кбит/с

[+] Инфо файл
Общее
Уникальный идентификатор                 : 193974723486865387571178250458366370957 (0x91EE2C3F5B8579BEBA0F94EB0CE6648D)
Полное имя                               : D:ВидеоComedy Club (09.12.2016)WEB-DLRip720p  by OlLandGroup.mkv
Формат                                   : Matroska
Версия формата                           : Version 4 / Version 2
Размер файла                             : 1,26 Гбайт
Продолжительность                        : 47 м.
Общий поток                              : 3785 Кбит/сек
Дата кодирования                         : UTC 2016-12-10 05:48:56
Программа кодирования                    : mkvmerge v9.6.0 ('Slave To Your Mind') 64bit
Библиотека кодирования                   : libebml v1.3.4 + libmatroska v1.4.5
DURATION                                 : 00:47:48.802000000
NUMBER_OF_FRAMES                         : 82366
NUMBER_OF_BYTES                          : 68851248
_STATISTICS_WRITING_APP                  : mkvmerge v9.6.0 ('Slave To Your Mind') 64bit
_STATISTICS_WRITING_DATE_UTC             : 2016-12-10 05:48:56
_STATISTICS_TAGS                         : BPS DURATION NUMBER_OF_FRAMES NUMBER_OF_BYTES

Видео
Идентификатор                            : 1
Формат                                   : AVC
Формат/Информация                        : Advanced Video Codec
Профиль формата                          : High@L3.1
Параметр CABAC формата                   : Да
Параметр ReFrames формата                : 1 кадр
Параметр GOP формата                     : M=1, N=12
Идентификатор кодека                     : V_MPEG4/ISO/AVC
Продолжительность                        : 47 м.
Битрейт                                  : 3518 Кбит/сек
Ширина                                   : 1280 пикселей
Высота                                   : 720 пикселей
Соотношение сторон                       : 16:9
Режим частоты кадров                     : Постоянный
Частота кадров                           : 25,000 кадров/сек
Стандарт вещания                         : Component
Цветовое пространство                    : YUV
Субдискретизация насыщенности            : 4:2:0
Битовая глубина                          : 8 бит
Тип развёртки                            : Прогрессивная
Бит/(Пиксели*Кадры)                      : 0.153
Размер потока                            : 1,17 Гбайт (93%)
Default                                  : Да
Forced                                   : Нет

Аудио
Идентификатор                            : 2
Формат                                   : AC-3
Формат/Информация                        : Audio Coding 3
Расширение режима                        : CM (complete main)
Параметр Endianness формата              : Big
Идентификатор кодека                     : A_AC3
Продолжительность                        : 47 м.
Вид битрейта                             : Постоянный
Битрейт                                  : 192 Кбит/сек
Каналы                                   : 2 канала
Расположение каналов                     : Front: L R
Частота                                  : 44,1 КГц
Битовая глубина                          : 16 бит
Метод сжатия                             : С потерями
Размер потока                            : 65,7 Мбайт (5%)
Default                                  : Да
Forced                                   : Нет

Скриншоты:

[+] Всего файлов в раздаче - 1:
Comedy Club (09.12.2016)WEB-DLRip720p by OlLandGroup.mkv1.26 GB

Текущая раздача:
Дата   Комментарии      Название Размер Пиры
2016-12-10  ↓  Новый Comedy Club [эфир от 09.12] (2016) WEB-DLRip 720p от OlLandGroup 1.26 GB ↑ 445 ↓ 103

Читать о обозначениях качества видеоПоказать ещё раздачи по запросу - новый:
2017-01-21  ↓  Новый Comedy Club [эфир от 20.01] (2017) WEB-DLRip 615.80 MB ↑ 242 ↓ 74
2017-01-21  ↓  Новый Comedy Club [эфир от 20.01] (2017) WEB-DL 720p 1.19 GB ↑ 357 ↓ 118
2017-01-20  ↓  Новый Comedy Club [эфир 20.01] (2017) SATRip 638.12 MB ↑ 711 ↓ 403
2017-01-14  ↓  Новый Comedy Club [эфир 13.01] (2017) WEB-DL 720p 1.20 GB ↑ 85 ↓ 64
2017-01-14  ↓  Новый Comedy Club [эфир от 13.01] (2017) SATRip 652.21 MB ↑ 115 ↓ 71
2017-01-03  ↓  Вечерний квартал - Новый год [95 выпуск] (2016) WEBRip-AVC 2.61 GB ↑ 167 ↓ 67
2017-01-03  ↓  Замуж в Новый год (2016) DVB от Files-x 2.73 GB ↑ 224 ↓ 61

Отзывы
Зарегистрируйтесь чтобы добавить комментарий.
Обратная связь