torrent.by
Поиск
Логин: Регистрация
Пароль: Восстановить пароль
Загрузка...

Comedy Баттл. Новый сезон [32] (2016) WEB-DLRip 720p от OlLanDGroup

 ↓  Скачать comedy-battl-novyy-sezon-32-2016-web-dlrip-720p-ot-ollandgroup.torrent
U Магнитная ссылка Размер: 1.25 GB Раздают: 195 Качают: 40 Добавлен: 2016-12-10 22:13:16
Comedy Баттл. Новый сезон [32] (2016) WEB-DLRip 720p от OlLanDGroup

Оригинальное название: Comedy Баттл. Новый сезон
Жанр:  ТВ-шоу, юмор
Дата выхода в эфир: 09.12.2016
Ведущие: Павел Воля
Участники: Жюри, кандидаты в резиденты

Описание: В этом году участниками битвы станут все самые известные юмористы, когда-либо принимавшие участие в «Comedy Баттл», а также те, кто благодаря участию в шоу стали резидентами Comedy Club. Биться за главный приз с опытными юнитами будут молодые и талантливые новички. Победитель сезона получит 7 миллионов рублей, а такие огромные деньги не помешают никому: ни резиденту Comedy Club, ни начинающему, амбициозному дебютанту. Посмотрим, что возьмет верх: опыт или молодость.

Выпущено: ТНТ, "Comedy Club Production"
Продолжительность: ~ 00:49:23
Язык: Русский

Файл
Кодек: x264
Качество: WEB-DLRip 720p
Видео: MPEG-4 AVC, 3512 Кбит/с, 1280x720
Аудио: AC3, 2 ch, 192 Кбит/с
[+] Инфо файл
Общее
Уникальный идентификатор                 : 237462789272717355196716903356898593162 (0xB2A5AB6E6E84DEF980BCD5D393A9C98A)
Полное имя                               : D:ВидеоComedy.Баттл.32.выпуск(09.12.2016)WEB-DLRip 720p by OlLandGroup.mkv
Формат                                   : Matroska
Версия формата                           : Version 4 / Version 2
Размер файла                             : 1,25 Гбайт
Продолжительность                        : 47 м.
Общий поток                              : 3780 Кбит/сек
Дата кодирования                         : UTC 2016-12-10 11:46:07
Программа кодирования                    : mkvmerge v9.6.0 ('Slave To Your Mind') 64bit
Библиотека кодирования                   : libebml v1.3.4 + libmatroska v1.4.5
DURATION                                 : 00:47:16.992000000
NUMBER_OF_FRAMES                         : 88656
NUMBER_OF_BYTES                          : 68087808
_STATISTICS_WRITING_APP                  : mkvmerge v9.6.0 ('Slave To Your Mind') 64bit
_STATISTICS_WRITING_DATE_UTC             : 2016-12-10 11:46:07
_STATISTICS_TAGS                         : BPS DURATION NUMBER_OF_FRAMES NUMBER_OF_BYTES

Видео
Идентификатор                            : 1
Формат                                   : AVC
Формат/Информация                        : Advanced Video Codec
Профиль формата                          : High@L3.1
Параметр CABAC формата                   : Да
Параметр ReFrames формата                : 1 кадр
Параметр GOP формата                     : M=1, N=12
Идентификатор кодека                     : V_MPEG4/ISO/AVC
Продолжительность                        : 47 м.
Битрейт                                  : 3512 Кбит/сек
Ширина                                   : 1280 пикселей
Высота                                   : 720 пикселей
Соотношение сторон                       : 16:9
Режим частоты кадров                     : Постоянный
Частота кадров                           : 25,000 кадров/сек
Стандарт вещания                         : Component
Цветовое пространство                    : YUV
Субдискретизация насыщенности            : 4:2:0
Битовая глубина                          : 8 бит
Тип развёртки                            : Прогрессивная
Бит/(Пиксели*Кадры)                      : 0.152
Размер потока                            : 1,16 Гбайт (93%)
Default                                  : Да
Forced                                   : Нет

Аудио
Идентификатор                            : 2
Формат                                   : AC-3
Формат/Информация                        : Audio Coding 3
Расширение режима                        : CM (complete main)
Параметр Endianness формата              : Big
Идентификатор кодека                     : A_AC3
Продолжительность                        : 47 м.
Вид битрейта                             : Постоянный
Битрейт                                  : 192 Кбит/сек
Каналы                                   : 2 канала
Расположение каналов                     : Front: L R
Частота                                  : 48,0 КГц
Битовая глубина                          : 16 бит
Метод сжатия                             : С потерями
Размер потока                            : 64,9 Мбайт (5%)
Default                                  : Да
Forced                                   : Нет

Скриншоты:
[+] Всего файлов в раздаче - 1:
Comedy.Баттл.32.выпуск(09.12.2016)WEB-DLRip 720p by OlLandGroup.mkv1.25 GB

Текущая раздача:
ДатаКомментарии    РазмерПиры
2016-12-10  ↓  Comedy Баттл. Новый сезон [32] (2016) WEB-DLRip 720p от OlLanDGroup 1.25 GB ↑ 195 ↓ 40

Показать ещё раздачи по запросу - comedy:
2017-04-22  ↓  Новый Comedy Club [эфир от 21.04] (2017) WEB-DLRip от OlLanDGroup 649.54 MB ↑ 179 ↓ 37
2017-04-22  ↓  Новый Comedy Club [эфир от 21.04] (2017) WEB-DL 720p 1.27 GB ↑ 249 ↓ 57
2017-04-15  ↓  Новый Comedy Club [эфир от 14.04] (2017) HDTV 1080p 4.78 GB ↑ 90 ↓ 32
2017-04-15  ↓  Новый Comedy Club [эфир от 14.04] (2017) WEB-DL 720p 1.23 GB ↑ 257 ↓ 84
2017-04-15  ↓  Новый Comedy Club [эфир от 14.04] (2017) WEB-DLRip от OlLanDGroup 629.34 MB ↑ 158 ↓ 82
2017-04-08  ↓  Новый Comedy Club [эфир от 07.04] (2017) WEB-DLRip от OlLanDGroup 561.92 MB ↑ 128 ↓ 38
2017-04-08  ↓  Новый Comedy Club [эфир от 07.04] (2017) WEB-DL 720p 1.09 GB ↑ 339 ↓ 84

Отзывы
Зарегистрируйтесь чтобы добавить комментарий.
Обратная связь