torrent.by
Поиск
Логин: Регистрация
Пароль: Восстановить пароль

Новый Comedy Club [эфир от 02.12] (2016) WEB-DLRip от OlLanDGroup

 ↓  Скачать novyy-comedy-club-efir-ot-02-12-2016-web-dlrip-ollandgroup.torrent
U Магнитная ссылка Размер: 650.36 MB Раздают: 128 Качают: 0 Добавлен: 2016-12-11 12:00:02

Новый Comedy Club [эфир от 02.12] (2016) WEB-DLRip от OlLanDGroup

Оригинальное название: Comedy Club
Жанр:  Юмористическое шоу
Дата выхода в эфир: 09.12.2016
Режиссер: Гарик Мартиросян
Ведущие: Гарик Харламов, Павел Воля
В ролях: Сергей Светлаков, Семен Слепаков, Группа USB - United Sexy Boys, Сергей Гореликов, Павел Воля, Тимур Батрутдинов, Виктор Васильев и Дмитрий Хрусталев, Дуэт «Рома и Леша», Зураб Матуа, Андрей Аверин, Дмитрий «Люсёк» Сорокин, Александр Незлобин и Элвис

Описание: На ТНТ стартует новый сезон Comedy Club. Отныне каждый выпуск шоу будет посвящен определенной тематике: мир моды и кино, День космонавтики, 1 апреля, 8 марта и даже выпуск целиком посвященный дню рождения одного из резидентов. Не пропусти! Самое популярное комедийное шоу на российском телевидении возвращается с абсолютно новой программой.

Выпущено: ТНТ, "Comedy Club Production"
Продолжительность: 00:45:22
Язык: Русский

Файл
Кодек: XviD
Качество: WEB-DLRip
Видео: XviD, 1700 Кбит/с, 704x400
Аудио: AC3, 2 ch, 192 Кбит/с

[+] Инфо файл
Общее
Полное имя                               : D:ВидеоComedy Club (09.12.2016)WEB-DLRip by OlLandGroup.avi
Формат                                   : AVI
Формат/Информация                        : Audio Video Interleave
Размер файла                             : 650 Мбайт
Продолжительность                        : 47 м.
Общий поток                              : 1902 Кбит/сек
Программа кодирования                    : VirtualDubMod 1.5.10.3 | www.virtualdub-fr.org || (build 2550/release)
Библиотека кодирования                   : VirtualDubMod build 2550/release

Видео
Идентификатор                            : 0
Формат                                   : MPEG-4 Visual
Профиль формата                          : Advanced Simple@L5
Параметр BVOP формата                    : 2
Параметр QPel формата                    : Нет
Параметр GMC формата                     : Без точки перехода
Параметр матрицы формата                 : Выборочная
Идентификатор кодека                     : XVID
Идентификатор кодека/Подсказка           : XviD
Продолжительность                        : 47 м.
Битрейт                                  : 1700 Кбит/сек
Ширина                                   : 704 пикселя
Высота                                   : 400 пикселей
Соотношение сторон                       : 16:9
Частота кадров                           : 25,000 кадров/сек
Цветовое пространство                    : YUV
Субдискретизация насыщенности            : 4:2:0
Битовая глубина                          : 8 бит
Тип развёртки                            : Прогрессивная
Метод сжатия                             : С потерями
Бит/(Пиксели*Кадры)                      : 0.241
Размер потока                            : 581 Мбайт (89%)
Библиотека кодирования                   : XviD 73

Аудио
Идентификатор                            : 1
Формат                                   : AC-3
Формат/Информация                        : Audio Coding 3
Расширение режима                        : CM (complete main)
Параметр Endianness формата              : Big
Идентификатор кодека                     : 2000
Продолжительность                        : 47 м.
Вид битрейта                             : Постоянный
Битрейт                                  : 192 Кбит/сек
Каналы                                   : 2 канала
Расположение каналов                     : Front: L R
Частота                                  : 48,0 КГц
Битовая глубина                          : 16 бит
Метод сжатия                             : С потерями
Размер потока                            : 65,7 Мбайт (10%)
Выравнивание                             : Разделение по промежуткам
Продолжительность промежутка             : 40  мс. (1,00 видеокадр)
Время предзагрузки промежутка            : 500  мс.

Скриншоты:

[+] Всего файлов в раздаче - 1:
Comedy Club (09.12.2016)WEB-DLRip by OlLandGroup.avi650.36 MB

Текущая раздача:
Дата Комментарии      Название Размер Пиры
2016-12-11  ↓  Новый Comedy Club [эфир от 02.12] (2016) WEB-DLRip от OlLanDGroup 650.36 MB ↑ 128 ↓ 0

Показать ещё раздачи по запросу - новый:
2017-03-25  ↓  Новый Comedy Club [эфир от 24.03] (2017) WEB-DL 720p 1Комментарии1.26 GB ↑ 300 ↓ 60
2017-03-25  ↓  Новый Comedy Club [эфир от 24.03] (2017) WEB-DLRip от OlLanDGroup 658.04 MB ↑ 83 ↓ 43
2017-03-24  ↓  Новый Comedy Club [эфир 24.03] (2017) SATRip 642.68 MB ↑ 625 ↓ 315
2017-03-19  ↓  Одноклассницы: Новый поворот (2017) WEB-DLRip-AVC от OlLanDGroup | iTunes Russia 1.30 GB ↑ 113 ↓ 19
2017-03-18  ↓  Одноклассницы: Новый поворот (2017) WEB-DL 720р | iTunes 2.36 GB ↑ 58 ↓ 11
2017-03-18  ↓  Новый Comedy Club [эфир от 17.03] (2017) WEB-DLRip от OlLanDGroup 700.94 MB ↑ 87 ↓ 11
2017-03-18  ↓  Новый Comedy Club [эфир от 17.03] (2017) WEB-DL 720p 1.23 GB ↑ 146 ↓ 45

Отзывы
Зарегистрируйтесь чтобы добавить комментарий.
Обратная связь